Важное объявление!
У Нас Все раздачи мультитрекерные, при нуле пиров в релизах, можете смело вставать на закачку!
 
Автор Сообщение

HUNTER

Стаж:
4 года 4 месяца
Сообщений:
56790

Репутация: 101

[+] [-]
Вне форума [Профиль] [ЛС]

Титаник: анатомия катастрофы / Titanic Anatomy of a Disaster
Дата/Год выпуска: 1997
Страна: Великобритания (UK)
Жанр: документальный, авария
Продолжительность: 01:44:00
Перевод: Студийный (одноголосый закадровый)
Доп. инфо о переводе: Премьер видео фильм
Русские субтитры: нет
Режиссер: Стивен Барнс / Stephen Burns
Описание: Документальный фильм от Discovery подарит Вам возможность отправиться в путешествие на дно Атлантического океана вместе с экспедицией, оснащенной по последнему слову техники. Вы увидите затонувший «Титаник» и станете свидетелем того, как раскроются многие из неразгаданных тайн, связанных с гибелью корабля.
Доп. информация: Полная версия (1 час 44 минуты). Оцифровано из видеокассеты "Премьер видео фильм" 1999 года издания
Сэмпл: http://sendfile.su/1076320
качество: VHSRip
формат: AVI
Видео: 720x540 (1.33:1), 25 fps, DivX Codec 6.6.1 ~2397 kbps avg, 0.25 bit/pixel
Аудио: 48 kHz, MPEG Layer 3, 2 ch, ~192.00 kbps avg

MediaInfo

ОбщееПолное имя : D:\Закачка\Titanik.Anatomia katastrofi.1997.DivX.VHSRip.aviФормат : DivXФормат/Информация : Hack of AVIРазмер файла : 1,89 ГбайтПродолжительность : 1 ч. 44 м.Общий поток : 2599 Кбит/сек
ВидеоИдентификатор : 0Формат : MPEG-4 VisualПараметр BVOP формата : НетПараметр QPel формата : НетПараметр GMC формата : Без точки переходаПараметр матрицы формата : Default (H.263)Идентификатор кодека : DX50Идентификатор кодека/Подсказка : DivX 5Продолжительность : 1 ч. 44 м.Битрейт : 2397 Кбит/секШирина : 720 пикселейВысота : 540 пикселейСоотношение сторон : 4:3Частота кадров : 25,000 кадров/секЦветовое пространство : YUVСубдискретизация насыщенности : 4:2:0Битовая глубина : 8 битТип развёртки : ПрогрессивнаяМетод сжатия : С потерямиБит/(Пиксели*Кадры) : 0.247Размер потока : 1,74 Гбайт (92%)Заголовок : VideoБиблиотека кодирования : DivX 6.6.1.4
АудиоИдентификатор : 1Формат : MPEG AudioВерсия формата : Version 1Профиль формата : Layer 3Режим : Joint stereoИдентификатор кодека : 55Идентификатор кодека/Подсказка : MP3Продолжительность : 1 ч. 44 м.Вид битрейта : ПостоянныйБитрейт : 192 Кбит/секКаналы : 2 каналаЧастота : 48,0 КГцМетод сжатия : С потерямиРазмер потока : 143 Мбайт (7%)Выравнивание : Разделение по промежуткамПродолжительность промежутка : 40 мс. (1,00 видеокадр)Время предзагрузки промежутка : 500 мс.Заголовок : AudioБиблиотека кодирования : LAME3.96

Скриншоты


_________________
Показать сообщения:    

Текущее время: Сегодня 10:36

Часовой пояс: GMT



Вы не можете начинать темы
Вы не можете отвечать на сообщения
Вы не можете редактировать свои сообщения
Вы не можете удалять свои сообщения
Вы не можете голосовать в опросах
Вы не можете прикреплять файлы к сообщениям
Вы не можете скачивать файлы