Важное объявление!
У Нас Все раздачи мультитрекерные, при нуле пиров в релизах, можете смело вставать на закачку!
 
Автор Сообщение

HUNTER

Стаж:
4 года 4 месяца
Сообщений:
56808

Репутация: 101

[+] [-]
Вне форума [Профиль] [ЛС]

Титан: После гибели земли / Titan A.E.
Страна: США
Жанр: мультфильм, фантастика, боевик, приключения
Продолжительность: 01:34:59
Год выпуска: 2000
Перевод: Авторский (одноголосый закадровый) Юрий Живов
Русские субтитры: нет
Режиссёр: Дон Блут, Гари Голдман, Арт Вителло / Don Bluth, Gary Goldman, Art Vitello
Роли озвучивали: Мэтт Дэймон, Билл Пуллман, Джон Легуизамо, Натан Лэйн, Джанин Гарофало, Дрю Бэрримор, Рон Перлман, Алекс Д. Линц, Тоун Лок, Джим Брюэр
Описание: В 3028 году Дреджи — агрессивная инопланетная раса уничтожила Землю. Пятнадцать лет спустя — юный Кейл узнает, что он владеет генетически запрограммированной картой на Титан — космический супер-корабль, в котором заключен секрет спасения человечества.
Кейлу предстоит полное опасностей путешествие через вселенную в составе команды космического корабля «Валькирия», сражения со злыми Дреджами, и восстановление Титана — последней надежды всего человечества.

Качество: WEB-DLRip [WEB-DL 720p]
Формат: AVI
Видео: XviD, 720x304 (2.37:1), 23.976 fps, XviD build 73 ~1678 kbps avg, 0.32 bit/pixel
Аудио: AC3, 48 kHz, AC3 Dolby Digital, 3/2 (L,C,R,l,r) + LFE ch, ~448 kbps
Субтитры: отсутствуют

Вдруг кому интересно

сравнение с DVDRip, с сравнение с HDTVRip + сравнение с HDTVRip сделаным с немецкого HDTV 1080, раздающийся на кинозале.
релиз WEB-DL 720p выложу на днях

Подробные технические данные

Полное имя : Титан После гибели Земли.aviФормат : AVIФормат/Информация : Audio Video InterleaveРазмер файла : 1,42 ГбайтПродолжительность : 1 ч. 34 м.Общий поток : 2135 Кбит/секПрограмма кодирования : VirtualDubMod 1.5.10.2 (build 2540/release)Библиотека кодирования : VirtualDubMod build 2540/release
ВидеоИдентификатор : 0Формат : MPEG-4 VisualПрофиль формата : Advanced Simple@L5Параметр BVOP формата : 2Параметр QPel формата : НетПараметр GMC формата : Без точки переходаПараметр матрицы формата : ВыборочнаяИдентификатор кодека : XVIDИдентификатор кодека/Подсказка : XviDПродолжительность : 1 ч. 34 м.Битрейт : 1678 Кбит/секШирина : 720 пикселейВысота : 304 пикселяСоотношение сторон : 2,35:1Частота кадров : 23,976 кадра/секЦветовое пространство : YUVСубдискретизация насыщенности : 4:2:0Битовая глубина : 8 битТип развёртки : ПрогрессивнаяМетод сжатия : С потерямиБит/(Пиксели*Кадры) : 0.320Размер потока : 1,11 Гбайт (79%)Библиотека кодирования : XviD 73
АудиоИдентификатор : 1Формат : AC-3Формат/Информация : Audio Coding 3Расширение режима : CM (complete main)Параметр Endianness формата : BigИдентификатор кодека : 2000Продолжительность : 1 ч. 34 м.Вид битрейта : ПостоянныйБитрейт : 448 Кбит/секКаналы : 6 каналовРасположение каналов : Front: L C R, Side: L R, LFEЧастота : 48,0 КГцБитовая глубина : 16 битМетод сжатия : С потерямиРазмер потока : 304 Мбайт (21%)Выравнивание : Разделение по промежуткамПродолжительность промежутка : 42 мс. (1,00 видеокадр)Время предзагрузки промежутка : 500 мс.

Скриншоты


_________________
Показать сообщения:    

Текущее время: Сегодня 10:12

Часовой пояс: GMT



Вы не можете начинать темы
Вы не можете отвечать на сообщения
Вы не можете редактировать свои сообщения
Вы не можете удалять свои сообщения
Вы не можете голосовать в опросах
Вы не можете прикреплять файлы к сообщениям
Вы не можете скачивать файлы