Важное объявление!
У Нас Все раздачи мультитрекерные, при нуле пиров в релизах, можете смело вставать на закачку!
 
Автор Сообщение

HUNTER

Стаж:
4 года 4 месяца
Сообщений:
56790

Репутация: 101

[+] [-]
Вне форума [Профиль] [ЛС]

Тинтин и озеро акул / Tintin et le Lac aux Requins / Tintin and the Lake of Sharks__________________________________________________________________________________________
Страна: Бельгия, Франция
Жанр: мультфильм, детектив, приключения, семейный
Продолжительность: 01:13:09
Год выпуска: 1972
Перевод 1: Профессиональный (дублированный) |т/к Gulli|
Перевод 2: Профессиональный (многоголосый закадровый)
Русские субтитры: есть
Режиссёр: Раймон Лебланк / Raymond Leblanc
Описание: Тинтин, Милу и капитан Хэддок отправляются отдохнуть на виллу к профессору Турнесолю на озеро Флешизаф. Но стоит им прибыть в Сильдавию, как об отдыхе нельзя и подумать. Встреча с Дюпонами, крушение самолета, таинственные гости в доме, пропажа бумаг профессора, - череда приключений не дает ни минуты покоя. А когда неизвестные похищают новых друзей Тинтина, брата и сестру из соседней деревни, ему ничего не остается, как отправится в логово врага - в тайное прибежище бандитов, спрятанное на дне озера.
__________________________________________________________________________________________

Видеоряд от: MediaClub (rip by Painter)
Качество: BDRip 720p
Формат: MKV
Видео: 1264x720, 25.000 fps, x264@L4.1, ~6000 kbps avg
Аудио 1: Russian: 48 kHz, AC3, 2/0 (L,R) ch, ~192 kbps avg |Дубляж, т/к Gulli|
Аудио 2: Russian: 48 kHz, AC3, 2/0 (L,R) ch, ~192 kbps avg |Многоголосый закадровый|
Аудио 3: French: 48 kHz, FLAC, 2/0 (L,R) ch, ~363 kbps avg |Original|
Субтитры: русские, английские, французские
Цитата:
Цитата:

  • Спасибо banzai 123 за VHS кассету с многоголосым закадровым переводом и bora86bora за его оцифровку.
  • Спасибо xfiles за исходник дубляжа. Работа со звуком Kasparas77.
  • Спасибо Jotunheimr за русский перевод субтитров.

Подробные технические данные

GeneralUnique ID : 214130117989414527046355153111394718589 (0xA117F5EB6537FFD085421296CAE6937D)Complete name : D:\Tintin.et.le.Lac.aux.Requins.1972.x264.BDRip.720p.2xRus.Fre.mkvFormat : MatroskaFormat version : Version 4 / Version 2File size : 3.45 GiBDuration : 1h 13mnOverall bit rate mode : VariableOverall bit rate : 6 749 KbpsMovie name : Тинтин и акулье озеро / Тэнтэн и озеро акул / Tintin et le Lac aux Requins / Tintin and the Lake of Sharks (1972)Encoded date : UTC 2016-03-03 05:17:16Writing application : mkvmerge v8.9.0 ('Father Daughter') 64bitWriting library : libebml v1.3.3 + libmatroska v1.4.4Cover : YesAttachments : cover.jpg
VideoID : 1Format : AVCFormat/Info : Advanced Video CodecFormat profile : High@L4.1Format settings, CABAC : YesFormat settings, ReFrames : 9 framesCodec ID : V_MPEG4/ISO/AVCDuration : 1h 13mnBit rate : 6 000 KbpsWidth : 1 264 pixelsHeight : 720 pixelsDisplay aspect ratio : 16:9Frame rate mode : ConstantFrame rate : 25.000 fpsColor space : YUVChroma subsampling : 4:2:0Bit depth : 8 bitsScan type : ProgressiveBits/(Pixel*Frame) : 0.264Stream size : 3.07 GiB (89%)Title : Tintin et le Lac aux Requins (1972) BDRip 720p = MediaClub = rip by PainterWriting library : x264 core 130 r2273 b3065e6Encoding settings : cabac=1 / ref=9 / deblock=1:-2:-2 / analyse=0x3:0x133 / me=umh / subme=11 / psy=1 / psy_rd=1.00:0.05 / mixed_ref=1 / me_range=32 / chroma_me=1 / trellis=2 / 8x8dct=1 / cqm=0 / deadzone=21,11 / fast_pskip=0 / chroma_qp_offset=-3 / threads=6 / lookahead_threads=1 / sliced_threads=0 / nr=0 / decimate=0 / interlaced=0 / bluray_compat=0 / constrained_intra=0 / bframes=8 / b_pyramid=2 / b_adapt=2 / b_bias=0 / direct=3 / weightb=1 / open_gop=0 / weightp=2 / keyint=250 / keyint_min=25 / scenecut=40 / intra_refresh=0 / rc_lookahead=60 / rc=2pass / mbtree=1 / bitrate=6000 / ratetol=1.0 / qcomp=0.70 / qpmin=0 / qpmax=69 / qpstep=4 / cplxblur=20.0 / qblur=0.5 / ip_ratio=1.40 / aq=1:0.80Language : FrenchDefault : YesForced : No
Audio #1ID : 2Format : AC-3Format/Info : Audio Coding 3Mode extension : CM (complete main)Format settings, Endianness : BigCodec ID : A_AC3Duration : 1h 13mnBit rate mode : ConstantBit rate : 192 KbpsChannel(s) : 2 channelsChannel positions : Front: L RSampling rate : 48.0 KHzFrame rate : 31.250 fps (1536 spf)Compression mode : LossyStream size : 100 MiB (3%)Title : Дубляж, т/к GulliLanguage : RussianDefault : YesForced : No
Audio #2ID : 3Format : AC-3Format/Info : Audio Coding 3Mode extension : CM (complete main)Format settings, Endianness : BigCodec ID : A_AC3Duration : 1h 13mnBit rate mode : ConstantBit rate : 192 KbpsChannel(s) : 2 channelsChannel positions : Front: L RSampling rate : 48.0 KHzFrame rate : 31.250 fps (1536 spf)Compression mode : LossyStream size : 100 MiB (3%)Title : МногоголосыйLanguage : RussianDefault : NoForced : No
Audio #3ID : 4Format : FLACFormat/Info : Free Lossless Audio CodecCodec ID : A_FLACDuration : 1h 13mnBit rate mode : VariableBit rate : 363 KbpsChannel(s) : 2 channelsChannel positions : Front: L RSampling rate : 48.0 KHzFrame rate : 11.719 fps (4096 spf)Bit depth : 16 bitsStream size : 190 MiB (5%)Title : OriginalWriting library : libFLAC 1.3.1 (UTC 2014-11-25)Language : FrenchDefault : NoForced : No
Text #1ID : 5Format : UTF-8Codec ID : S_TEXT/UTF8Codec ID/Info : UTF-8 Plain TextDuration : 1h 9mnBit rate : 67 bpsCount of elements : 792Stream size : 34.5 KiB (0%)Language : RussianDefault : NoForced : No
Text #2ID : 6Format : UTF-8Codec ID : S_TEXT/UTF8Codec ID/Info : UTF-8 Plain TextDuration : 1h 9mnBit rate : 55 bpsCount of elements : 774Stream size : 28.1 KiB (0%)Language : EnglishDefault : NoForced : No
Text #3ID : 7Format : UTF-8Codec ID : S_TEXT/UTF8Codec ID/Info : UTF-8 Plain TextDuration : 1h 8mnBit rate : 44 bpsCount of elements : 788Stream size : 22.3 KiB (0%)Language : FrenchDefault : NoForced : No
Menu00:00:00.000 : fr:Chapter 0100:08:48.040 : fr:Chapter 0200:14:12.800 : fr:Chapter 0300:21:18.720 : fr:Chapter 0400:27:55.159 : fr:Chapter 0500:34:58.080 : fr:Chapter 0600:41:17.760 : fr:Chapter 0700:52:13.840 : fr:Chapter 0800:58:10.120 : fr:Chapter 0901:02:37.920 : fr:Chapter 10

Скриншоты



_________________
Показать сообщения:    

Текущее время: Сегодня 13:56

Часовой пояс: GMT



Вы не можете начинать темы
Вы не можете отвечать на сообщения
Вы не можете редактировать свои сообщения
Вы не можете удалять свои сообщения
Вы не можете голосовать в опросах
Вы не можете прикреплять файлы к сообщениям
Вы не можете скачивать файлы