Важное объявление!
У Нас Все раздачи мультитрекерные, при нуле пиров в релизах, можете смело вставать на закачку!
 
Автор Сообщение

HUNTER

Стаж:
4 года 4 месяца
Сообщений:
56719

Репутация: 101

[+] [-]
Вне форума [Профиль] [ЛС]

Тинтин и акулье озеро / Тэнтэн и озеро акул / Tintin et le Lac aux Requins / Tintin and the Lake of Sharks-
Страна: Бельгия, Франция
Жанр: мультфильм, детектив, приключения, семейный
Продолжительность: 01:13:00
Год выпуска: 1972
Перевод: Профессиональный (дублированный)
Русские субтитры: нет-Режиссёр: Раймон Лебланк / Raymond Leblanc- | Релиз: -Описание: Тинтин, Милу и капитан Хэддок отправляются отдохнуть на виллу к профессору Турнесолю на озеро Флешизаф. Но стоит им прибыть в Сильдавию, как об отдыхе нельзя и подумать. Встреча с Дюпонами, крушение самолета, таинственные гости в доме, пропажа бумаг профессора, - череда приключений не дает ни минуты покоя. А когда неизвестные похищают новых друзей Тинтина, брата и сестру из соседней деревни, ему ничего не остается, как отправится в логово врага - в тайное прибежище бандитов, спрятанное на дне озера.-Семпл: http://sendfile.su/1056688-Качество: DVB (Канал "Gulli")
Формат: MPG
Видео: 720x576 (4:3) @ 768x576, 25.000 fps, MPEG-2 Video, ~2446 Kbps, 0.236 bits/pixel
Аудио: 48.0 KHz, MPEG-1 Audio layer 2, 2 ch, 192 Kbps
Субтитры: отсутствуют

MediaInfo

GeneralComplete name : Tintin et le Lac aux Requins 1972 Gulli DUB.mpgFormat : MPEG-PSFile size : 1.37 GiBDuration : 1h 13mnOverall bit rate mode : VariableOverall bit rate : 2 691 Kbps
VideoID : 224 (0xE0)Format : MPEG VideoFormat version : Version 2Format profile : Main@MainFormat settings, BVOP : YesFormat settings, Matrix : CustomFormat settings, GOP : VariableFormat settings, picture structure : FrameDuration : 1h 13mnBit rate mode : VariableBit rate : 2 446 KbpsMaximum bit rate : 15.0 MbpsWidth : 720 pixelsHeight : 576 pixelsDisplay aspect ratio : 4:3Frame rate : 25.000 fpsStandard : PALColor space : YUVChroma subsampling : 4:2:0Bit depth : 8 bitsScan type : InterlacedScan order : Top Field FirstCompression mode : LossyBits/(Pixel*Frame) : 0.236Time code of first frame : 00:00:00:00Time code source : Group of pictures headerGOP, Open/Closed : OpenStream size : 1.25 GiB (91%)GOP, Open/Closed of first frame : Closed
AudioID : 192 (0xC0)Format : MPEG AudioFormat version : Version 1Format profile : Layer 2Duration : 1h 13mnBit rate mode : ConstantBit rate : 192 KbpsChannel(s) : 2 channelsSampling rate : 48.0 KHzCompression mode : LossyStream size : 100 MiB (7%)

_________________
Показать сообщения:    

Текущее время: Сегодня 03:04

Часовой пояс: GMT



Вы не можете начинать темы
Вы не можете отвечать на сообщения
Вы не можете редактировать свои сообщения
Вы не можете удалять свои сообщения
Вы не можете голосовать в опросах
Вы не можете прикреплять файлы к сообщениям
Вы не можете скачивать файлы