Важное объявление!
У Нас Все раздачи мультитрекерные, при нуле пиров в релизах, можете смело вставать на закачку!
 
Автор Сообщение

HUNTER

Стаж:
4 года 4 месяца
Сообщений:
56822

Репутация: 101

[+] [-]
Вне форума [Профиль] [ЛС]

Школа Достигатора
Страна: Россия
Тематика: НЛП, психология
Тип раздаваемого материала: Видеоурок
Продолжительность: 13 часов
Год выпуска: 2008
Язык: Русский
Перевод: Не требуется
Описание: Школа Достигатора - Халява, Хотелка
Страна: Россия
Тематика: Психология, НЛП
Тип раздаваемого материала: Видеоурок
Продолжительность: 3 ч
Год выпуска: 2007
Язык: Русский
Перевод: Отсутствует
Описание: Школа Достигатора - Халява, Хотелка (CAMRip) 2007
Год выпуска: 2007
Страна: Россия
Жанр: НЛП, психология, обучающее видео
Продолжительность: 3 часа
Описание: Вы можете назвать себя везучим человеком? Можете сказать, что давно и основательно протоптали дорожку к «вселенскому рогу изобилия»? Что Удача у вас из рук ест, как верный и преданный пёс, а Везение заботливо укутывает вас своим чарующим шлейфом, как мантия короля или плащ чародея, куда бы ни ступила ваша нога?
Или вы до сих пор об Удаче и Везении только из рассказов счастливчиков и судите? А ваш опыт ограничивается парой-тройкой бледненьких случайностей, которыми в достойной компании не то, что удивить, просто соответствовать сложно? И вы уверены, что «эти глупости» случаются только в сказках, фантазиях или мечтах. А с такими «серьёзными людьми», как вы, жизнь поступает «только по справедливости» - паши, и по пахоте твоей тебе воздастся?
И где-то на задворках сознания или глубоко в душе теплится слабая надежа – а вдруг?!.. Вдруг в один прекрасный момент всё изменится волшебным образом, и я проснусь человеком-везунчиком? Тем счастливчиком, у которого:
- Желания сбываются!
- Счастливые случайности становятся закономерностью!
- Градус личной харизматичности буквально зашкаливает, и от этого люди вокруг становятся в очередь в желании сделать для вас всё возможное, и даже не возможное!
- Мир вокруг готов дать вам всё, что вы хотите!
- Вы знаете как, когда и где это можно получить!
- И просто жизнь во всех её проявлениях станет легче и халявней!
Автор: Гагин Тимур
Название: Школа Достигатора - Халява, Хотелка
Производство: Школа Достигатора
Год: 2007
Продолжительность: 3 часа
Качество: CAMRip
Формат: MP4
Язык: русский
Размер: 2.27 Гб
Аудио: AAC, 256, 48, 2
Качество: CamRip
Формат: MP4
Видео кодек: MPEG2
Аудио кодек: AAC
Качество: CAMRip
Формат: MP4
Видео кодек: MPEG2
Аудио кодек: AAC

Скриншот1

Скриншот2

Техданные

D:\Video\Достигатор\Halyava\M2U00563.mp4
General
Complete name : D:\Video\Достигатор\Halyava\M2U00563.mp4
Format : MPEG-4
Format profile : Base Media / Version 2
Codec ID : mp42
File size : 29.1 MiB
Duration : 4mn 18s
Overall bit rate : 946 Kbps
Encoded date : UTC 2007-12-01 19:43:05
Tagged date : UTC 2007-12-01 19:43:07
Video #1
ID : 1
Format : AVC
Format/Info : Advanced Video Codec
Format profile : Baseline@L3.1
Format settings, CABAC : No
Format settings, ReFrames : 2 frames
Codec ID : avc1
Codec ID/Info : Advanced Video Coding
Duration : 4mn 18s
Bit rate mode : Variable
Bit rate : 687 Kbps
Width : 1 024 pixels
Height : 576 pixels
Display aspect ratio : 16:9
Frame rate mode : Constant
Frame rate : 25.000 fps
Resolution : 24 bits
Colorimetry : 4:2:0
Scan type : Progressive
Bits/(Pixel*Frame) : 0.047
Stream size : 21.1 MiB (73%)
Language : English
Encoded date : UTC 2007-12-01 19:43:05
Tagged date : UTC 2007-12-01 19:43:07
colour_primaries : BT.709-5, BT.1361, IEC 61966-2-4, SMPTE RP177
transfer_characteristics : BT.709-5, BT.1361
matrix_coefficients : BT.709-5, BT.1361, IEC 61966-2-4 709, SMPTE RP177
Audio #2
ID : 2
Format : AAC
Format/Info : Advanced Audio Codec
Format version : Version 4
Format profile : LC
Format settings, SBR : No
Codec ID : 40
Duration : 4mn 18s
Bit rate mode : Constant
Bit rate : 256 Kbps
Channel(s) : 2 channels
Channel positions : L R
Sampling rate : 48.0 KHz
Resolution : 16 bits
Stream size : 7.88 MiB (27%)
Language : English
Encoded date : UTC 2007-12-01 19:43:05
Tagged date : UTC 2007-12-01 19:43:07
Качество: CAMRip
Формат: MP4
Видео кодек: MPEG2
Аудио кодек: AAC

_________________
Показать сообщения:    

Текущее время: Сегодня 04:21

Часовой пояс: GMT



Вы не можете начинать темы
Вы не можете отвечать на сообщения
Вы не можете редактировать свои сообщения
Вы не можете удалять свои сообщения
Вы не можете голосовать в опросах
Вы не можете прикреплять файлы к сообщениям
Вы не можете скачивать файлы