Важное объявление!
У Нас Все раздачи мультитрекерные, при нуле пиров в релизах, можете смело вставать на закачку!
 
Автор Сообщение

HUNTER

Стаж:
4 года 4 месяца
Сообщений:
56808

Репутация: 101

[+] [-]
Вне форума [Профиль] [ЛС]

Онлайн библиотека на Java
Год выпуска: 2015
Производитель: Тимур Батыршинов
Сайт производителя: http://javabegin.ru/
Автор: Тимур Батыршинов
Продолжительность: 28 часов
Тип раздаваемого материала: Мультимедийный диск
Язык: Русский
Описание: Вы с нуля создадите веб проект на Java и сможете его дорабатывать по своему усмотрению.: В проекте используются все популярные инструменты Java: JSF, Hibernate, AJAX, Facelets, PrimeFaces, OmniFacesm MySQL и другие. Сначала вы разработаете полностью функционал, после этого будете добавлять готовый дизайн страниц, шаблонов, стилей, различные скрипты.

Содержание

Часть 1 - Введение в J2EE и технологию сервлетов
Отличия J2EE от J2SE
Многоуровневые приложения
Архитектура J2EE
Состав J2EE
HTTP протокол
Спецификации и стандарты: JSR, JCP, RFC, W3C
HTML/XHTML
CSS
Веб сервер
Сервер приложений
Glassfish Server
Сервлеты
Иерархия классов сервлета
Servlet API
Жизненный цикл сервлета
Параметры инициализации сервлета
Веб контейнер (Сервлет контейнер)
Дескриптор развертывания (Deployment Descriptor) Mapping
Параметры сервлета
HTTP методы
Структура веб приложения
Настройки в xml формате
Сессия
Cookies
Многопоточность в сервлетах
Кластеризация
Домены
Коды ошибок HTTP
Настройка страниц ошибок в веб приложении
Фильтры
Слушатели событий веб контейнера
Области видимости переменных
Атрибуты и параметры
Объекты веб контейнера
Отладка запросов в Google Chrome
Отладка запросов в HTTP Server Monitor
Создание сервлетов в NetBeans
Минусы и плюсы сервлетов
Сравнение с современными технологиями
Часть 2 - Java Server Pages, GlassFish, MySQL
Типы приложений: JAR, WAR, EAR
Java Server Pages (JSP)
Сравнение JSP с другими технологиями
JSP контейнер
Жизненный цикл JSP
Компиляция и трансляция JSP страниц
Спецификация JSP
Разделение представления и логики
JSP страница и JSP документ
Варианты создания веб страниц
Разделение страницы на области
Использование фрагментов JSP (JSPF)
Расширяемость JSP
Плюсы и минусы JSP
Стандартные действия JSP
JSTL - JavaServer Pages Standard Tag Library
EL - Expression Language
Спецификация JSTL
JavaBeans
Области видимости параметров в JSP
Работа с формами, передача параметров
Работа с кодировкой и русскими символами
Начало создания веб проекта "Онлайн библиотека" в NetBeans
Палитра компонентов
Установка MySQL
Установка дизайнера MySQL
Создание базы данных проекта в MySQL
Способы аутентификации пользователя в веб приложении
Проектирование приложения "Онлайн библиотека"
Настройка DataSource: соединение с базой данных
Использование JDBC
Администрирование GlassFish
Применение JNDI
Применение всех пройденных тем для написания проекта
Часть 3 - Java Server Faces, Ajax, Hibernate, Maven
Java Server Faces (JSF)
Сравнение с другими технологиями: сервлеты и JSP
Жизненый цикл JSF
Особенности создания веб страниц на JSF
Facelets
Теги Facelets
Реализации JSF
PrimeFaces
OmniFaces
MVC
Managed Bean
Навигация и правила
Поддержка языков
Валидаторы полей на веб странице
Конвертеры
Компоненты JSF
Загрузка данных в таблицу
Постраничный вывод данных
Редактирование данных в таблице
Сохранение файлов в JSF
Загрузка файлов в JSF
Поддержка нескольких языков с переводом
Обработка ошибок
Создания событий (Action)
Дерево компонентов JSF
Использование Ajax (по аналогии в Gmail)
Реализации JPA
Hibernate
Загрузка двоичных файлов в базу данных
Регистрация ошибок через Ajax
Система безопасности в J2EE
Авторизация пользователя с применением Ajax
Применение стороннего дизайна на существующий веб проект
Публикация приложения онлайн для тестирования другими участниками
Использование Maven
JavaScript
Файлы примеров: присутствуют
Формат видео: MP4
Видео: MPEG4 Video (H264) 1824x1020 30fps 104kbps
Видео: MPEG4 Video (H264) 1816x1020 (235:132) 30fps 163kbps
Аудио: AAC 44100Hz stereo 93kbps
Аудио: AAC 44100Hz stereo 93kbps

MediaInfo

General
Complete name :
Format : MPEG-4
Format profile : Base Media / Version 2
Codec ID : mp42
File size : 18.2 MiB
Duration : 9mn 48s
Overall bit rate mode : Variable
Overall bit rate : 260 Kbps
Encoded date : UTC 2013-10-18 18:33:50
Tagged date : UTC 2013-10-18 18:33:50
Video
ID : 1
Format : AVC
Format/Info : Advanced Video Codec
Format profile : Baseline@L4.0
Format settings, CABAC : No
Format settings, ReFrames : 3 frames
Codec ID : avc1
Codec ID/Info : Advanced Video Coding
Duration : 9mn 48s
Source duration : 9mn 48s
Bit rate : 164 Kbps
Width : 1 816 pixels
Height : 1 020 pixels
Display aspect ratio : 16:9
Frame rate mode : Variable
Frame rate : 30.000 fps
Minimum frame rate : 30.000 fps
Maximum frame rate : 30.030 fps
Standard : NTSC
Color space : YUV
Chroma subsampling : 4:2:0
Bit depth : 8 bits
Scan type : Progressive
Bits/(Pixel*Frame) : 0.003
Stream size : 11.5 MiB (63%)
Source stream size : 11.5 MiB (63%)
Language : English
Encoded date : UTC 2013-10-18 18:33:50
Tagged date : UTC 2013-10-18 18:33:50
mdhd_Duration : 588600
Audio
ID : 2
Format : AAC
Format/Info : Advanced Audio Codec
Format profile : LC
Codec ID : 40
Duration : 9mn 48s
Source duration : 9mn 48s
Bit rate mode : Variable
Bit rate : 93.6 Kbps
Maximum bit rate : 124 Kbps
Channel(s) : 2 channels
Channel positions : Front: L R
Sampling rate : 44.1 KHz
Compression mode : Lossy
Stream size : 6.57 MiB (36%)
Source stream size : 6.57 MiB (36%)
Language : English
Encoded date : UTC 2013-10-18 18:33:50
Tagged date : UTC 2013-10-18 18:33:50
mdhd_Duration : 588626

Скриншоты


_________________
Показать сообщения:    

Текущее время: Сегодня 10:19

Часовой пояс: GMT



Вы не можете начинать темы
Вы не можете отвечать на сообщения
Вы не можете редактировать свои сообщения
Вы не можете удалять свои сообщения
Вы не можете голосовать в опросах
Вы не можете прикреплять файлы к сообщениям
Вы не можете скачивать файлы