Важное объявление!
У Нас Все раздачи мультитрекерные, при нуле пиров в релизах, можете смело вставать на закачку!
 
Автор Сообщение

HUNTER

Стаж:
4 года 4 месяца
Сообщений:
56755

Репутация: 101

[+] [-]
Вне форума [Профиль] [ЛС]

Интерактивные приложения с помощью Google Web Toolkit
Год выпуска: 2015
Производитель: Тимур Батыршинов
Сайт производителя: http://javabegin.ru/
Автор: Тимур Батыршинов
Продолжительность: 05:44:42
Тип раздаваемого материала: Видеоурок
Язык: Русский
Описание: Технология создания веб приложений от Google, которая позволяет создавать красивые Ajax приложения, используя для этого только Java, без знания JavaScript и других библиотек. Если вам нужно быстро и без лишних действий создать несложное приложения Ajax- вам в этом поможет GWT.
Что нужно знать перед началом изучения GWT
- ООП (желательно, для профессионального кода)
- HTML (создание веб страниц)
- CSS (установка стилей для компонентов)

Содержание

1 Введение в GWT
2 Виджеты
3 Установка SDK
4 Создание проекта
5 Добавление компонентов
6 Слушатели событий
7 Передача данных на сервер
8 Передача объектов
9 Обработка исключений
10 Валидация данных на клиенте
11 Внедрение виджетов в HTML
12 Отладка приложения
13 GWT Designer
14 Разбор примера StockWatcher
15 Типы запусков приложений
16 UiBinder
17 Книги и ресурсы
18 Разбор приложения Mail
19 Модули
20 Подключение библиотек виджетов
21 Smart GWT и Sencha GXT
21 Доп.файл - Сравнение фреймворков GWT
22 Подключение GXT
23 File upload
24 Индикатор загрузки
Файлы примеров: присутствуют
Формат видео: MP4
Видео: AVC, 1812x1016, 16:9, 30 fps, 500 kbps
Аудио: AAC, 44.1 kHz, 126 kbps, 2 ch

Скриншоты

MediaInfo

General
Complete name : /media/media-hdd2/JavaVideo/_Курсы/[JavaBegin] Интерактивные приложения с помощью Google Web Toolkit [2015]/video/13-GWT Designer_nomusic.mp4
Format : MPEG-4
Format profile : Base Media / Version 2
Codec ID : mp42
File size : 32.8 MiB
Duration : 7mn 19s
Overall bit rate mode : Variable
Overall bit rate : 627 Kbps
Encoded date : UTC 2014-12-23 00:40:35
Tagged date : UTC 2014-12-23 00:40:35
Video
ID : 1
Format : AVC
Format/Info : Advanced Video Codec
Format profile : Baseline@L4.0
Format settings, CABAC : No
Format settings, ReFrames : 3 frames
Codec ID : avc1
Codec ID/Info : Advanced Video Coding
Duration : 7mn 19s
Source duration : 7mn 19s
Bit rate : 499 Kbps
Width : 1 812 pixels
Height : 1 016 pixels
Display aspect ratio : 16:9
Frame rate mode : Variable
Frame rate : 30.000 fps
Minimum frame rate : 30.000 fps
Maximum frame rate : 30.030 fps
Standard : NTSC
Color space : YUV
Chroma subsampling : 4:2:0
Bit depth : 8 bits
Scan type : Progressive
Bits/(Pixel*Frame) : 0.009
Stream size : 26.1 MiB (80%)
Source stream size : 26.1 MiB (80%)
Language : English
Encoded date : UTC 2014-12-23 00:40:35
Tagged date : UTC 2014-12-23 00:40:35
mdhd_Duration : 439100
Audio
ID : 2
Format : AAC
Format/Info : Advanced Audio Codec
Format profile : LC
Codec ID : 40
Duration : 7mn 19s
Source duration : 7mn 19s
Bit rate mode : Variable
Bit rate : 126 Kbps
Maximum bit rate : 166 Kbps
Channel(s) : 2 channels
Channel positions : Front: L R
Sampling rate : 44.1 KHz
Compression mode : Lossy
Stream size : 6.58 MiB (20%)
Source stream size : 6.58 MiB (20%)
Language : English
Encoded date : UTC 2014-12-23 00:40:35
Tagged date : UTC 2014-12-23 00:40:35
mdhd_Duration : 439136

_________________
Показать сообщения:    

Текущее время: Сегодня 11:37

Часовой пояс: GMT



Вы не можете начинать темы
Вы не можете отвечать на сообщения
Вы не можете редактировать свои сообщения
Вы не можете удалять свои сообщения
Вы не можете голосовать в опросах
Вы не можете прикреплять файлы к сообщениям
Вы не можете скачивать файлы