Важное объявление!
У Нас Все раздачи мультитрекерные, при нуле пиров в релизах, можете смело вставать на закачку!
 
Автор Сообщение

HUNTER

Стаж:
4 года 4 месяца
Сообщений:
56848

Репутация: 101

[+] [-]
Вне форума [Профиль] [ЛС]

Темный рыцарь / The Dark Knight
Страна: США
Жанр: боевик, приключения, драма, криминал
Год выпуска: 2008
Продолжительность: 02:32:13
Перевод#1: Профессиональный (дублированный) | BD CEE
Перевод#2: Профессиональный (многоголосый закадровый) | Кравец
Перевод#3: Авторский (одноголосый закадровый), Ю. Сербин
Перевод#4: Авторский (одноголосый закадровый), А. Гаврилов
Перевод#5: Авторский (одноголосый закадровый), Ю. Живов
Перевод#6: Одноголосый закадровый, REN_313 по переводу Гоблина
Перевод#7: Одноголосый закадровый, М. Чадов по переводу Гоблина
Cубтитры: русские, английские
Оригинальная аудиодорожка: английский
Режиссер: Кристофер Нолан / Christopher Nolan
В ролях: Кристиан Бэйл, Майкл Кейн, Хит Леджер, Гари Олдман, Морган Фриман, Мэгги Джилленхол, Нестор Карбонелл, Эрик Робертс, Ричи Костер, Киллиан Мерфи, Чин Хан
Описание: Всего за несколько дней жизнь в Готэм-сити превратилась в кошмар. Равновесие между криминальным миром с одной стороны, и усилиями Бэтмена, комиссара полиции Джеймса Гордона и нового прокурора Харви Дента по обузданию негодяев, с другой, нарушил Джокер. Ограбив банк мафии, тот не только вышел сухим из воды, но и заключил с бандитами сделку — в обмен на уничтожение Бэтмена он получит половину преступных доходов города. Однако цель Джокера — тотальный хаос. Бэтмену придется сражаться не только с безумным клоуном и его бандой, но и с тьмой в сердцах добропорядочных обитателей города...

Тип релиза: BDRip 1080p (от SbR) | sample
Контейнер: MKV
Видео кодек: x264
Видео: AVC 1920x1080 (16:9), 23.976 fps, ~16800 Kbps (70%), 0.34 bit/pixel
Аудио #1: Russian AC3 6ch 48kHz 448Kbps | Dub BD CEE
Аудио #2: Russian AC3 6ch 48kHz 448Kbps | MVO Кравец
Аудио #3: Russian DTS 6ch 48kHz 1510Kbps | AVO Сербин
Аудио #4: Russian DTS 6ch 48kHz 1510Kbps | AVO Гаврилов
Аудио #5: Russian DTS 6ch 48kHz 1510Kbps | AVO Живов
Аудио #6: Russian DTS 6ch 48kHz 1510Kbps | VO REN_313
Аудио #7: Russian AC3 6ch 48kHz 384Kbps | VO Чадов
Аудио #8: English DTS 6ch 48kHz 1510Kbps | Original
Аудио #9: English Vorbis 2ch 48kHz ~80Kbps | Commentary
Формат субтитров: softsub (SRT)
Главы: есть, подписаны

Дополнительно

За основу взят релиз Скажутина с HDCLUB, Сербин, Живов и REN_313 - c HDTRACKER, всем спасибо

MediaInfo | x264

x264

y4m [info]: 1920x1080p 1:1 @ 24000/1001 fps (cfr)
y4m [info]: color matrix: bt709
x264 [info]: using SAR=1/1
x264 [info]: using cpu capabilities: MMX2 SSE2Fast SSSE3 SSE4.2 AVX
x264 [info]: profile High, level 4.1
x264 [info]: frame I:1724 Avg QP:14.01 size:195609
x264 [info]: frame P:51567 Avg QP:15.12 size:128956
x264 [info]: frame B:165690 Avg QP:16.77 size: 73445
x264 [info]: consecutive B-frames: 2.4% 5.9% 4.9% 33.9% 15.0% 23.9% 7.9% 4.3% 1.7%
x264 [info]: mb I I16..4: 9.9% 71.1% 18.9%
x264 [info]: mb P I16..4: 0.7% 37.1% 1.3% P16..4: 13.9% 15.8% 5.1% 0.0% 0.0% skip:26.0%
x264 [info]: mb B I16..4: 0.2% 9.8% 0.2% B16..8: 28.4% 15.8% 2.6% direct: 7.2% skip:35.8% L0:38.2% L1:35.4% BI:26.4%
x264 [info]: 8x8 transform intra:94.5% inter:52.9%
x264 [info]: direct mvs spatial:99.9% temporal:0.1%
x264 [info]: coded y,uvDC,uvAC intra: 93.2% 76.5% 49.0% inter: 32.8% 17.3% 3.3%
x264 [info]: i16 v,h,dc,p: 22% 21% 13% 44%
x264 [info]: i8 v,h,dc,ddl,ddr,vr,hd,vl,hu: 12% 10% 40% 5% 6% 6% 6% 6% 8%
x264 [info]: i4 v,h,dc,ddl,ddr,vr,hd,vl,hu: 11% 12% 26% 6% 10% 8% 9% 7% 11%
x264 [info]: i8c dc,h,v,p: 25% 40% 24% 12%
x264 [info]: Weighted P-Frames: Y:1.7% UV:0.3%
x264 [info]: ref P L0: 52.3% 8.8% 26.0% 12.0% 0.8% 0.0%
x264 [info]: ref B L0: 88.6% 9.4% 2.1%
x264 [info]: ref B L1: 93.3% 6.7%
x264 [info]: kb/s:16779.20
General
Complete name : D:\...\The.Dark.Knight.2008.1080p.BluRay.x264.7xRus.Eng-SbR.mkv
Format : Matroska
Format version : Version 2
File size : 27.3 GiB
Duration : 2h 32mn
Overall bit rate mode : Variable
Overall bit rate : 25.7 Mbps
Movie name : The.Dark.Knight.2008.1080p.BluRay.x264.7xRus.Eng-SbR
Encoded date : UTC 2014-02-04 04:49:06
Writing application : mkvmerge v6.5.0 ('Isn't she lovely') built on Oct 20 2013 12:50:05
Writing library : libebml v1.3.0 + libmatroska v1.4.1
Video
ID : 1
Format : AVC
Format/Info : Advanced Video Codec
Format profile : High@L4.1
Format settings, CABAC : Yes
Format settings, ReFrames : 4 frames
Codec ID : V_MPEG4/ISO/AVC
Bit rate : 16.3 Mbps
Width : 1 920 pixels
Height : 1 080 pixels
Display aspect ratio : 16:9
Frame rate mode : Variable
Original frame rate : 23.976 fps
Color space : YUV
Chroma subsampling : 4:2:0
Bit depth : 8 bits
Scan type : Progressive
Title : The Dark Knight (2008)
Writing library : x264 core 138 r2359+704+48 3f879a0 tMod [8-bit@4:2:0 X86_64]
Encoding settings : cabac=1 / ref=4 / deblock=1:-2:-2 / analyse=0x3:0x113 / me=umh / subme=11 / psy=1 / fade_compensate=0.00 / psy_rd=1.00:0.00 / mixed_ref=1 / me_range=48 / chroma_me=1 / trellis=2 / 8x8dct=1 / cqm=0 / deadzone=21,11 / fast_pskip=1 / chroma_qp_offset=-2 / threads=12 / lookahead_threads=2 / sliced_threads=0 / nr=0 / decimate=1 / interlaced=0 / bluray_compat=0 / constrained_intra=0 / fgo=0 / bframes=8 / b_pyramid=2 / b_adapt=2 / b_bias=0 / direct=3 / weightb=1 / open_gop=0 / weightp=2 / keyint=250 / keyint_min=23 / scenecut=40 / intra_refresh=0 / rc_lookahead=60 / rc=crf / mbtree=0 / crf=18.0000 / qcomp=0.60 / qpmin=0:0:0 / qpmax=69:69:69 / qpstep=4 / vbv_maxrate=62500 / vbv_bufsize=78125 / crf_max=0.0 / nal_hrd=none / ip_ratio=1.40 / pb_ratio=1.30 / aq=4:0.80 / aq-sensitivity=11.00 / aq-factor=1.00:1.00:1.00 / aq2=1:0.60 / aq2-sensitivity=9.00 / aq2-factor=1.00:1.00:1.00 / aq3=1:[0.60:0.60]:[0.60:0.60]:[0.60:0.60]:[0.60:0.60] / aq3-sensitivity=10.00 / aq3-factor=[1.00:1.00]:[1.00:1.00]:[1.00:1.00] / aq3-boundary=192:64:24
Language : English
Default : Yes
Forced : No
Color primaries : BT.709
Transfer characteristics : BT.709
Matrix coefficients : BT.709
Audio #1
ID : 2
Format : AC-3
Format/Info : Audio Coding 3
Mode extension : CM (complete main)
Format settings, Endianness : Big
Codec ID : A_AC3
Duration : 2h 32mn
Bit rate mode : Constant
Bit rate : 448 Kbps
Channel(s) : 6 channels
Channel positions : Front: L C R, Side: L R, LFE
Sampling rate : 48.0 KHz
Bit depth : 16 bits
Compression mode : Lossy
Stream size : 488 MiB (2%)
Title : Dub BD CEE
Language : Russian
Default : Yes
Forced : No
Audio #2
ID : 3
Format : AC-3
Format/Info : Audio Coding 3
Mode extension : CM (complete main)
Format settings, Endianness : Big
Codec ID : A_AC3
Duration : 2h 32mn
Bit rate mode : Constant
Bit rate : 448 Kbps
Channel(s) : 6 channels
Channel positions : Front: L C R, Side: L R, LFE
Sampling rate : 48.0 KHz
Bit depth : 16 bits
Compression mode : Lossy
Stream size : 488 MiB (2%)
Title : MVO Kravec
Language : Russian
Default : No
Forced : No
Audio #3
ID : 4
Format : DTS
Format/Info : Digital Theater Systems
Codec ID : A_DTS
Duration : 2h 32mn
Bit rate mode : Constant
Bit rate : 1 510 Kbps
Channel(s) : 6 channels
Channel positions : Front: L C R, Side: L R, LFE
Sampling rate : 48.0 KHz
Bit depth : 16 bits
Compression mode : Lossy
Stream size : 1.61 GiB (6%)
Title : AVO Serbin
Language : Russian
Default : No
Forced : No
Audio #4
ID : 5
Format : DTS
Format/Info : Digital Theater Systems
Codec ID : A_DTS
Duration : 2h 32mn
Bit rate mode : Constant
Bit rate : 1 510 Kbps
Channel(s) : 6 channels
Channel positions : Front: L C R, Side: L R, LFE
Sampling rate : 48.0 KHz
Bit depth : 24 bits
Compression mode : Lossy
Stream size : 1.61 GiB (6%)
Title : AVO Gavrilov
Language : Russian
Default : No
Forced : No
Audio #5
ID : 6
Format : DTS
Format/Info : Digital Theater Systems
Codec ID : A_DTS
Duration : 2h 32mn
Bit rate mode : Constant
Bit rate : 1 510 Kbps
Channel(s) : 6 channels
Channel positions : Front: L C R, Side: L R, LFE
Sampling rate : 48.0 KHz
Bit depth : 16 bits
Compression mode : Lossy
Stream size : 1.61 GiB (6%)
Title : AVO Zhivov
Language : Russian
Default : No
Forced : No
Audio #6
ID : 7
Format : DTS
Format/Info : Digital Theater Systems
Codec ID : A_DTS
Duration : 2h 32mn
Bit rate mode : Constant
Bit rate : 1 510 Kbps
Channel(s) : 6 channels
Channel positions : Front: L C R, Side: L R, LFE
Sampling rate : 48.0 KHz
Bit depth : 24 bits
Compression mode : Lossy
Stream size : 1.61 GiB (6%)
Title : VO REN_313
Language : Russian
Default : No
Forced : No
Audio #7
ID : 8
Format : AC-3
Format/Info : Audio Coding 3
Mode extension : CM (complete main)
Format settings, Endianness : Big
Codec ID : A_AC3
Duration : 2h 32mn
Bit rate mode : Constant
Bit rate : 384 Kbps
Channel(s) : 6 channels
Channel positions : Front: L C R, Side: L R, LFE
Sampling rate : 48.0 KHz
Bit depth : 16 bits
Compression mode : Lossy
Stream size : 418 MiB (1%)
Title : VO Chadov
Language : Russian
Default : No
Forced : No
Audio #8
ID : 9
Format : DTS
Format/Info : Digital Theater Systems
Codec ID : A_DTS
Duration : 2h 32mn
Bit rate mode : Constant
Bit rate : 1 510 Kbps
Channel(s) : 6 channels
Channel positions : Front: L C R, Side: L R, LFE
Sampling rate : 48.0 KHz
Bit depth : 16 bits
Compression mode : Lossy
Stream size : 1.61 GiB (6%)
Title : Original
Language : English
Default : No
Forced : No
Audio #9
ID : 10
Format : Vorbis
Format settings, Floor : 1
Codec ID : A_VORBIS
Duration : 2h 32mn
Bit rate mode : Variable
Bit rate : 80.0 Kbps
Channel(s) : 2 channels
Sampling rate : 44.1 KHz
Compression mode : Lossy
Stream size : 87.1 MiB (0%)
Title : Commentary
Writing library : libVorbis 1.2 (UTC 2007-06-22)
Language : English
Default : No
Forced : No
Writing application : VLC media player
Text #1
ID : 11
Format : UTF-8
Codec ID : S_TEXT/UTF8
Codec ID/Info : UTF-8 Plain Text
Title : BD CEE
Language : Russian
Default : No
Forced : No
Text #2
ID : 12
Format : UTF-8
Codec ID : S_TEXT/UTF8
Codec ID/Info : UTF-8 Plain Text
Title : Goblin
Language : Russian
Default : No
Forced : No
Text #3
ID : 13
Format : UTF-8
Codec ID : S_TEXT/UTF8
Codec ID/Info : UTF-8 Plain Text
Title : voronine
Language : Russian
Default : No
Forced : No
Text #4
ID : 14
Format : UTF-8
Codec ID : S_TEXT/UTF8
Codec ID/Info : UTF-8 Plain Text
Language : English
Default : No
Forced : No
Text #5
ID : 15
Format : UTF-8
Codec ID : S_TEXT/UTF8
Codec ID/Info : UTF-8 Plain Text
Title : SDH
Language : Russian
Default : No
Forced : No
Menu
00:00:00.000 : en:Robbery Gone Stranger
00:06:23.966 : en:Intimidate Mode
00:10:36.260 : en:Unknown Limits
00:13:52.581 : en:Last Game in Town
00:17:54.198 : en:Protector's Mantle
00:21:39.339 : en:Kill the Batman
00:26:10.026 : en:Hong Kong Holiday
00:29:36.274 : en:Why so Serious?
00:31:42.483 : en:Landing Lau
00:37:49.058 : en:Men of their Word
00:43:34.069 : en:Hero with a Face
00:46:39.546 : en:Somebody with Access
00:48:57.768 : en:Tonight's Entertainment
00:53:19.446 : en:Watch the World Burn
00:57:15.640 : en:Your Plan is Blackmail?
00:59:26.354 : en:Dishonour Guard
01:03:59.627 : en:No Rules
01:08:23.557 : en:Right Choice
01:10:48.327 : en:I am the Batman
01:14:24.918 : en:Trip to Country
01:18:05.639 : en:Bat-pod Faceoff
01:22:22.437 : en:We Got Him
01:24:48.583 : en:Good Cop, Bad Cop
01:30:48.442 : en:Two-way Race
01:34:04.972 : en:Burned Down
01:39:57.783 : en:Harvey Two-Face
01:42:05.494 : en:Better Class of Criminal
01:44:59.918 : en:Watch Out
01:47:00.872 : en:Agent of Chaos
01:51:09.913 : en:Hospital Boom
01:54:14.639 : en:Too Much Power
01:57:04.017 : en:Unlucky
02:00:14.248 : en:Ferry Scary
02:03:37.576 : en:Prewitt Building Siege
02:09:07.614 : en:Verge of Fireworks
02:12:27.314 : en:Battle for Gotham's Soul
02:15:22.781 : en:One Pointing the Gun
02:19:58.681 : en:Dark Knight
02:24:26.658 : en:End Credits

Скриншоты

source vs SbR






_________________
Показать сообщения:    

Текущее время: Сегодня 00:17

Часовой пояс: GMT



Вы не можете начинать темы
Вы не можете отвечать на сообщения
Вы не можете редактировать свои сообщения
Вы не можете удалять свои сообщения
Вы не можете голосовать в опросах
Вы не можете прикреплять файлы к сообщениям
Вы не можете скачивать файлы
Наши партнеры: интернет магазин Ивановского трикотажа textilla.ru