Важное объявление!
У Нас Все раздачи мультитрекерные, при нуле пиров в релизах, можете смело вставать на закачку!
 
Автор Сообщение

HUNTER

Стаж:
4 года 4 месяца
Сообщений:
56722

Репутация: 101

[+] [-]
Вне форума [Профиль] [ЛС]

Темный рыцарь / The Dark Knight
Страна: США
Жанр: боевик, приключения, драма, криминал
Год выпуска: 2008
Продолжительность: 02:32:13
Перевод#1: Профессиональный (дублированный) | BD CEE
Перевод#2: Профессиональный (многоголосый закадровый) | Кравец
Перевод#3: Авторский (одноголосый закадровый), Ю. Сербин
Перевод#4: Авторский (одноголосый закадровый), А. Гаврилов
Перевод#5: Авторский (одноголосый закадровый), Ю. Живов
Перевод#6: Одноголосый закадровый, М. Чадов по переводу Гоблина
Cубтитры: русские, английские
Оригинальная аудиодорожка: английский
Режиссер: Кристофер Нолан / Christopher Nolan
В ролях: Кристиан Бэйл, Майкл Кейн, Хит Леджер, Гари Олдман, Морган Фриман, Мэгги Джилленхол, Нестор Карбонелл, Эрик Робертс, Ричи Костер, Киллиан Мерфи, Чин Хан
Описание: Всего за несколько дней жизнь в Готэм-сити превратилась в кошмар. Равновесие между криминальным миром с одной стороны, и усилиями Бэтмена, комиссара полиции Джеймса Гордона и нового прокурора Харви Дента по обузданию негодяев, с другой, нарушил Джокер. Ограбив банк мафии, тот не только вышел сухим из воды, но и заключил с бандитами сделку — в обмен на уничтожение Бэтмена он получит половину преступных доходов города. Однако цель Джокера — тотальный хаос. Бэтмену придется сражаться не только с безумным клоуном и его бандой, но и с тьмой в сердцах добропорядочных обитателей города...

Тип релиза: BDRip 720p (от CtrlHD) | sample
Контейнер: MKV
Видео кодек: x264
Видео: AVC 1280x720 (16:9), 23.976 fps, ~7000 Kbps, 0.32 bit/pixel
Аудио #1: Russian AC3 6ch 48kHz 448Kbps | Dub BD CEE
Аудио #2: Russian AC3 6ch 48kHz 448Kbps | MVO Кравец
Аудио #3: Russian AC3 6ch 48kHz 640Kbps | AVO Сербин
Аудио #4: Russian AC3 6ch 48kHz 640Kbps | AVO Гаврилов
Аудио #5: Russian AC3 6ch 48kHz 640Kbps | AVO Живов
Аудио #6: Russian AC3 6ch 48kHz 384Kbps | VO Чадов
Аудио #7: English AC3 6ch 48kHz 640Kbps | Original
Аудио #8: English Vorbis 2ch 48kHz ~80Kbps | Commentary
*Войсовер REN_313 по Гоблину берем здесь
Формат субтитров: softsub (SRT)
Главы: есть, подписаны

Дополнительно

Дороги c HDTRACKER и HDCLUB, всем спасибо

MediaInfo | x264

x264

avs [info]: 1280x720p 0:0 @ 24000/1001 fps (cfr)
x264 [info]: using cpu capabilities: MMX2 SSE2Fast SSSE3 FastShuffle SSE4.2 AVX
x264 [info]: profile High, level 4.1
x264 [info]: frame I:1874 Avg QP:13.92 size:110129
x264 [info]: frame P:49871 Avg QP:15.36 size: 58913
x264 [info]: frame B:167235 Avg QP:17.28 size: 28971
x264 [info]: consecutive B-frames: 2.8% 3.7% 8.7% 23.1% 15.6% 33.7% 5.9% 3.4% 1.2% 0.9% 1.0%
x264 [info]: mb I I16..4: 25.4% 56.6% 18.1%
x264 [info]: mb P I16..4: 1.8% 16.1% 2.1% P16..4: 24.1% 19.8% 11.2% 1.9% 0.2% skip:22.8%
x264 [info]: mb B I16..4: 0.1% 2.8% 0.3% B16..8: 27.8% 16.8% 5.1% direct: 7.8% skip:39.3% L0:41.7% L1:39.1% BI:19.1%
x264 [info]: 8x8 transform intra:79.9% inter:49.9%
x264 [info]: direct mvs spatial:95.1% temporal:4.9%
x264 [info]: coded y,uvDC,uvAC intra: 87.8% 76.2% 58.3% inter: 31.1% 16.4% 3.6%
x264 [info]: i16 v,h,dc,p: 57% 15% 7% 21%
x264 [info]: i8 v,h,dc,ddl,ddr,vr,hd,vl,hu: 12% 11% 15% 8% 11% 11% 11% 10% 12%
x264 [info]: i4 v,h,dc,ddl,ddr,vr,hd,vl,hu: 11% 12% 9% 9% 14% 12% 12% 10% 13%
x264 [info]: i8c dc,h,v,p: 40% 28% 19% 13%
x264 [info]: Weighted P-Frames: Y:3.2% UV:1.1%
x264 [info]: ref P L0: 46.6% 7.7% 19.2% 7.6% 6.1% 4.3% 3.8% 2.2% 2.1% 0.3% 0.0%
x264 [info]: ref B L0: 73.1% 12.5% 5.9% 3.1% 2.2% 1.8% 1.0% 0.3%
x264 [info]: ref B L1: 92.7% 7.3%
x264 [info]: SSIM Mean Y:0.9897608 (19.897db)
x264 [info]: kb/s:6997.96
General
Complete name : E:\...\The.Dark.Knight.2008.720p.BluRay.DD5.1.x264.6xRus.Eng-CtrlHD.mkv
Format : Matroska
Format version : Version 2
File size : 11.6 GiB
Duration : 2h 32mn
Overall bit rate mode : Variable
Overall bit rate : 10.9 Mbps
Movie name : The.Dark.Knight.2008.720p.BluRay.DD5.1.x264.6xRus.Eng-CtrlHD
Encoded date : UTC 2014-02-03 22:42:12
Writing application : mkvmerge v6.5.0 ('Isn't she lovely') built on Oct 20 2013 12:50:05
Writing library : libebml v1.3.0 + libmatroska v1.4.1
Video
ID : 1
Format : AVC
Format/Info : Advanced Video Codec
Format profile : High@L4.1
Format settings, CABAC : Yes
Format settings, ReFrames : 9 frames
Codec ID : V_MPEG4/ISO/AVC
Duration : 2h 32mn
Bit rate : 7 000 Kbps
Width : 1 280 pixels
Height : 720 pixels
Display aspect ratio : 16:9
Frame rate mode : Constant
Frame rate : 23.976 fps
Color space : YUV
Chroma subsampling : 4:2:0
Bit depth : 8 bits
Scan type : Progressive
Bits/(Pixel*Frame) : 0.317
Stream size : 7.21 GiB (62%)
Title : The Dark Knight (2008)
Writing library : x264 core 125 r2200 999b753
Encoding settings : cabac=1 / ref=9 / deblock=1:-3:-3 / analyse=0x3:0x133 / me=tesa / subme=10 / psy=1 / psy_rd=0.70:0.00 / mixed_ref=1 / me_range=48 / chroma_me=1 / trellis=2 / 8x8dct=1 / cqm=0 / deadzone=21,11 / fast_pskip=0 / chroma_qp_offset=-2 / threads=12 / lookahead_threads=2 / sliced_threads=0 / nr=0 / decimate=1 / interlaced=0 / bluray_compat=0 / constrained_intra=0 / bframes=10 / b_pyramid=2 / b_adapt=2 / b_bias=0 / direct=3 / weightb=1 / open_gop=0 / weightp=2 / keyint=250 / keyint_min=23 / scenecut=40 / intra_refresh=0 / rc_lookahead=60 / rc=2pass / mbtree=1 / bitrate=7000 / ratetol=1.0 / qcomp=0.70 / qpmin=0 / qpmax=69 / qpstep=4 / cplxblur=20.0 / qblur=0.5 / vbv_maxrate=40000 / vbv_bufsize=30000 / nal_hrd=none / ip_ratio=1.40 / aq=1:0.80
Language : English
Default : Yes
Forced : No
Audio #1
ID : 2
Format : AC-3
Format/Info : Audio Coding 3
Mode extension : CM (complete main)
Format settings, Endianness : Big
Codec ID : A_AC3
Duration : 2h 32mn
Bit rate mode : Constant
Bit rate : 448 Kbps
Channel(s) : 6 channels
Channel positions : Front: L C R, Side: L R, LFE
Sampling rate : 48.0 KHz
Bit depth : 16 bits
Compression mode : Lossy
Stream size : 488 MiB (4%)
Title : Dub BD CEE
Language : Russian
Default : Yes
Forced : No
Audio #2
ID : 3
Format : AC-3
Format/Info : Audio Coding 3
Mode extension : CM (complete main)
Format settings, Endianness : Big
Codec ID : A_AC3
Duration : 2h 32mn
Bit rate mode : Constant
Bit rate : 448 Kbps
Channel(s) : 6 channels
Channel positions : Front: L C R, Side: L R, LFE
Sampling rate : 48.0 KHz
Bit depth : 16 bits
Compression mode : Lossy
Stream size : 488 MiB (4%)
Title : MVO Kravec
Language : Russian
Default : No
Forced : No
Audio #3
ID : 4
Format : AC-3
Format/Info : Audio Coding 3
Mode extension : CM (complete main)
Format settings, Endianness : Big
Codec ID : A_AC3
Duration : 2h 32mn
Bit rate mode : Constant
Bit rate : 640 Kbps
Channel(s) : 6 channels
Channel positions : Front: L C R, Side: L R, LFE
Sampling rate : 48.0 KHz
Bit depth : 16 bits
Compression mode : Lossy
Stream size : 697 MiB (6%)
Title : AVO Serbin
Language : Russian
Default : No
Forced : No
Audio #4
ID : 5
Format : AC-3
Format/Info : Audio Coding 3
Mode extension : CM (complete main)
Format settings, Endianness : Big
Codec ID : A_AC3
Duration : 2h 32mn
Bit rate mode : Constant
Bit rate : 640 Kbps
Channel(s) : 6 channels
Channel positions : Front: L C R, Side: L R, LFE
Sampling rate : 48.0 KHz
Bit depth : 16 bits
Compression mode : Lossy
Stream size : 697 MiB (6%)
Title : AVO Gavrilov
Language : Russian
Default : No
Forced : No
Audio #5
ID : 6
Format : AC-3
Format/Info : Audio Coding 3
Mode extension : CM (complete main)
Format settings, Endianness : Big
Codec ID : A_AC3
Duration : 2h 32mn
Bit rate mode : Constant
Bit rate : 640 Kbps
Channel(s) : 6 channels
Channel positions : Front: L C R, Side: L R, LFE
Sampling rate : 48.0 KHz
Bit depth : 16 bits
Compression mode : Lossy
Stream size : 697 MiB (6%)
Title : AVO Zhivov
Language : Russian
Default : No
Forced : No
Audio #6
ID : 7
Format : AC-3
Format/Info : Audio Coding 3
Mode extension : CM (complete main)
Format settings, Endianness : Big
Codec ID : A_AC3
Duration : 2h 32mn
Bit rate mode : Constant
Bit rate : 384 Kbps
Channel(s) : 6 channels
Channel positions : Front: L C R, Side: L R, LFE
Sampling rate : 48.0 KHz
Bit depth : 16 bits
Compression mode : Lossy
Stream size : 418 MiB (4%)
Title : VO Chadov
Language : Russian
Default : No
Forced : No
Audio #7
ID : 8
Format : AC-3
Format/Info : Audio Coding 3
Mode extension : CM (complete main)
Format settings, Endianness : Big
Codec ID : A_AC3
Duration : 2h 32mn
Bit rate mode : Constant
Bit rate : 640 Kbps
Channel(s) : 6 channels
Channel positions : Front: L C R, Side: L R, LFE
Sampling rate : 48.0 KHz
Bit depth : 16 bits
Compression mode : Lossy
Stream size : 697 MiB (6%)
Title : Original
Language : English
Default : No
Forced : No
Audio #8
ID : 9
Format : Vorbis
Format settings, Floor : 1
Codec ID : A_VORBIS
Duration : 2h 32mn
Bit rate mode : Variable
Bit rate : 80.0 Kbps
Channel(s) : 2 channels
Sampling rate : 44.1 KHz
Compression mode : Lossy
Stream size : 87.1 MiB (1%)
Title : Commentary
Writing library : libVorbis 1.2 (UTC 2007-06-22)
Language : English
Default : No
Forced : No
Writing application : VLC media player
Text #1
ID : 10
Format : UTF-8
Codec ID : S_TEXT/UTF8
Codec ID/Info : UTF-8 Plain Text
Title : BD CEE
Language : Russian
Default : No
Forced : No
Text #2
ID : 11
Format : UTF-8
Codec ID : S_TEXT/UTF8
Codec ID/Info : UTF-8 Plain Text
Title : Goblin
Language : Russian
Default : No
Forced : No
Text #3
ID : 12
Format : UTF-8
Codec ID : S_TEXT/UTF8
Codec ID/Info : UTF-8 Plain Text
Title : voronine
Language : Russian
Default : No
Forced : No
Text #4
ID : 13
Format : UTF-8
Codec ID : S_TEXT/UTF8
Codec ID/Info : UTF-8 Plain Text
Language : English
Default : No
Forced : No
Text #5
ID : 14
Format : UTF-8
Codec ID : S_TEXT/UTF8
Codec ID/Info : UTF-8 Plain Text
Title : SDH
Language : English
Default : No
Forced : No
Menu
00:00:00.000 : en:Robbery Gone Stranger
00:06:23.966 : en:Intimidate Mode
00:10:36.260 : en:Unknown Limits
00:13:52.581 : en:Last Game in Town
00:17:54.198 : en:Protector's Mantle
00:21:39.339 : en:Kill the Batman
00:26:10.026 : en:Hong Kong Holiday
00:29:36.274 : en:Why so Serious?
00:31:42.483 : en:Landing Lau
00:37:49.058 : en:Men of their Word
00:43:34.069 : en:Hero with a Face
00:46:39.546 : en:Somebody with Access
00:48:57.768 : en:Tonight's Entertainment
00:53:19.446 : en:Watch the World Burn
00:57:15.640 : en:Your Plan is Blackmail?
00:59:26.354 : en:Dishonour Guard
01:03:59.627 : en:No Rules
01:08:23.557 : en:Right Choice
01:10:48.327 : en:I am the Batman
01:14:24.918 : en:Trip to Country
01:18:05.639 : en:Bat-pod Faceoff
01:22:22.437 : en:We Got Him
01:24:48.583 : en:Good Cop, Bad Cop
01:30:48.442 : en:Two-way Race
01:34:04.972 : en:Burned Down
01:39:57.783 : en:Harvey Two-Face
01:42:05.494 : en:Better Class of Criminal
01:44:59.918 : en:Watch Out
01:47:00.872 : en:Agent of Chaos
01:51:09.913 : en:Hospital Boom
01:54:14.639 : en:Too Much Power
01:57:04.017 : en:Unlucky
02:00:14.248 : en:Ferry Scary
02:03:37.576 : en:Prewitt Building Siege
02:09:07.614 : en:Verge of Fireworks
02:12:27.314 : en:Battle for Gotham's Soul
02:15:22.781 : en:One Pointing the Gun
02:19:58.681 : en:Dark Knight
02:24:26.658 : en:End Credits

Скриншоты

source vs CtrlHD



_________________
Показать сообщения:    

Текущее время: Сегодня 13:21

Часовой пояс: GMT



Вы не можете начинать темы
Вы не можете отвечать на сообщения
Вы не можете редактировать свои сообщения
Вы не можете удалять свои сообщения
Вы не можете голосовать в опросах
Вы не можете прикреплять файлы к сообщениям
Вы не можете скачивать файлы