Важное объявление!
У Нас Все раздачи мультитрекерные, при нуле пиров в релизах, можете смело вставать на закачку!
 
Автор Сообщение

HUNTER

Стаж:
4 года 4 месяца
Сообщений:
56749

Репутация: 101

[+] [-]
Вне форума [Профиль] [ЛС]

-
Год выпуска: 2009
Страна: Япония
Жанр: мистика, драма
Продолжительность: ТВ-сериал, 23 эп. по 24 мин. + спешл
Выпуск: c 09.01.2009 по 19.06.2009-Перевод:

  • русские субтитры от Antravoco & Eternal HARO (полные/вспомогательные)
    редактор: Advokat, переводчик/редактор: Kekcelt, оформление: Rictorn
    -Режиссер: Кобаяси Цунэо
    Студия: Sunrise-Описание:
    Мир устроен совсем не так, как кажется… У любого человека есть два двойника и каждый из них идет своим путем, накапливая тэру – энергию Судьбы. Важно делать это независимо, ибо, если двойники встречаются – один из них погибает, передавая свою тэру другому. Рано или поздно из трех остается только один, человек, называемый «корнем», который примет на себя общую судьбу. За вечным круговоротом тэры наблюдают ее хранители, внешне похожая на людей могущественная раса Мотоцумитама. Но это имя знают только посвященные, прочие же люди зовут их проще – Темные боги.
    Это история о японском юноше Кэйте Ибуки, который, теряя близких, рано познал опасную истину и связал свою судьбу с юной хранительницей Куро; об их поисках и борьбе против всемогущей Судьбы….
    © Hollow, World Art
    Здесь есть нормальный сюжет, хорошая анимация, хорошие сейю. Но в это всё как будто не вдохнули жизнь, душу. Нет размеренности, естественности, атмосферы... Думаю, что тем, кто мало видел аниме, может понравиться, наверное, должно понравиться. А может лицам помладше. Может тем, кто смотрит с озвучкой и кому не важна игра сейю. В общем всем тем, кем я не являюсь.
    © amnesiac, World Art-Информационные ссылки: AniDB || World Art || MAL-Качество: BDRip
    Энкод: Winter - RG Pantheon
    Тип видео: без хардсаба, без линковки
    Формат: mkv
    Видео: x264 (Hi10p), 1280x720, ~3300 Kbps, 23.976 fps
    Аудио JAP: Vorbis, 48000Hz, ~256 Kbps, 2ch
    Аудио RUS 1-2: AC3, 48000Hz, ~192 Kbps, 2ch (внешними файлами)-

    Список озвучек в раздаче
  • одноголосая (муж.) от Valkrist (MCA)
  • двухголосая (муж./жен.) от Tinda & JAM (Animedia)
    Список эпизодов
    01. Three Existences as One
    02. Contract
    03. Synchro
    04. Pursuer
    05. Exceed
    06. Sub Contractee
    07. Kuro's Past
    08. Hiba Tribe
    09. Mother's Shadow
    10. The End
    11. Reunion
    12. Fierce Fight
    13. New World
    14. Breakthrough
    15. Shinra
    16. Collapse
    17. Masagami
    18. Cataclysm
    19. Great Abyss
    20. Awakening
    21. Miracle
    22. Destiny
    23. Path
    S1. Tiger and Wings
    СкриншотыОтличия от других раздачПодробные тех. данные
    Общее
    Уникальный идентификатор : 214401460291576325213992344974555878270 (0xA14C3820BDB9BE84804813080660137E)
    Полное имя : S:\Anime\720p\Kurokami The Animation [BD] [720p]\[Winter] Kurokami The Animation 01 [BDrip 1280x720 x264 Vorbis].mkv
    Формат : Matroska
    Версия формата : Version 2
    Размер файла : 606 Мбайт
    Продолжительность : 23 м.
    Режим общего битрейта : Переменный
    Общий поток : 3647 Кбит/сек
    Дата кодирования : UTC 2014-05-29 20:49:46
    Программа кодирования : mkvmerge v2.9.8 ('C'est le bon') built on Aug 13 2009 12:49:06
    Библиотека кодирования : libebml v0.7.7 + libmatroska v0.8.1
    Видео
    Идентификатор : 1
    Формат : AVC
    Формат/Информация : Advanced Video Codec
    Профиль формата : High 10@L4.1
    Параметр CABAC формата : Да
    Параметр ReFrames формата : 9 кадров
    Идентификатор кодека : V_MPEG4/ISO/AVC
    Продолжительность : 23 м.
    Битрейт : 3319 Кбит/сек
    Ширина : 1280 пикселей
    Высота : 720 пикселей
    Соотношение сторон : 16:9
    Режим частоты кадров : Постоянный
    Частота кадров : 23,976 кадра/сек
    Цветовое пространство : YUV
    Субдискретизация насыщенности : 4:2:0
    Битовая глубина : 10 бит
    Тип развёртки : Прогрессивная
    Бит/(Пиксели*Кадры) : 0.150
    Размер потока : 552 Мбайт (91%)
    Библиотека кодирования : x264 core 132 r2309 3b1f1f7
    Настройки программы : cabac=1 / ref=9 / deblock=1:-2:-2 / analyse=0x3:0x133 / me=umh / subme=9 / psy=1 / psy_rd=0.90:0.00 / mixed_ref=1 / me_range=24 / chroma_me=1 / trellis=2 / 8x8dct=1 / cqm=0 / deadzone=21,11 / fast_pskip=1 / chroma_qp_offset=-2 / threads=12 / lookahead_threads=2 / sliced_threads=0 / nr=0 / decimate=0 / interlaced=0 / bluray_compat=0 / constrained_intra=0 / bframes=8 / b_pyramid=2 / b_adapt=2 / b_bias=0 / direct=1 / weightb=1 / open_gop=0 / weightp=2 / keyint=250 / keyint_min=23 / scenecut=40 / intra_refresh=0 / rc=crf / mbtree=0 / crf=15.8 / qcomp=0.70 / qpmin=9 / qpmax=40 / qpstep=4 / ip_ratio=1.40 / pb_ratio=1.30 / aq=1:0.90
    Default : Нет
    Forced : Нет
    Аудио
    Идентификатор : 2
    Формат : Vorbis
    Параметр Floor формата : 1
    Идентификатор кодека : A_VORBIS
    Продолжительность : 23 м.
    Вид битрейта : Переменный
    Битрейт : 256 Кбит/сек
    Каналы : 2 канала
    Частота : 48,0 КГц
    Метод сжатия : С потерями
    Размер потока : 42,6 Мбайт (7%)
    Библиотека кодирования : libVorbis (Schaufenugget) (20101101 (Schaufenugget))
    Язык : Japanese
    Default : Да
    Forced : Нет
    - -Информация о релизе
  • Выбор видео, перевода, озвучки, а также типа сборки материала осуществляется релизером и не подлежит обсуждению. Если вы считаете, что раздаваемый материал противоречит правилам раздела "Аниме" rutracker.org, сообщите об этом одному из модераторов раздела.
  • В случае появления нового материала или же лучшего по качеству материала релизер оставляет за собой право обновить раздачу. В этом случае вам необходимо ознакомиться с изменениями (добавлениями) и перекачать торрент.
  • Данный релиз предназначен для просмотра на ПК. Воспроизведение на иных проигрывателях не гарантируется. Для просмотра рекомендуется Media Player Classic с установленным пакетом кодеков K-Lite.
  • Данный релиз содержит 10-битное видео (Hi10p). Для корректного воспроизведения обязательно используйте кодеки, поддерживающие 10-битное видео.
    Обсудить частные случаи проблем с воспроизведением и получить дополнительную информацию можно здесь.

  • Данный релиз предназначен для просмотра с внешними субтитрами и внешними звуковыми дорожками.
  • Для просмотра с внешней звуковой дорожкой нужно:
    перекинуть файлы .mka из папки "RUS Sound [<автор(ы) озвучки>]" в одну папку с видео и переключить звуковую дорожку в плеере при просмотре. Как это сделать в разных плеерах подробно описано здесь.

  • Для просмотра с субтитрами нужно:
    перекинуть файлы .ass из папки "RUS Subtitles [<автор(ы) перевода>]" в одну папку с видео - плеер подгрузит их автоматически при открытии видео.

  • Если у вас возникли проблемы с просмотром, не связанные с описанным выше, сообщите о них автору раздачи посредством сообщения в теме или ЛС Aglenn.

  • _________________
    Показать сообщения:    

    Текущее время: Сегодня 21:23

    Часовой пояс: GMT



    Вы не можете начинать темы
    Вы не можете отвечать на сообщения
    Вы не можете редактировать свои сообщения
    Вы не можете удалять свои сообщения
    Вы не можете голосовать в опросах
    Вы не можете прикреплять файлы к сообщениям
    Вы не можете скачивать файлы