Важное объявление!
У Нас Все раздачи мультитрекерные, при нуле пиров в релизах, можете смело вставать на закачку!
 
Автор Сообщение

HUNTER

Стаж:
4 года 4 месяца
Сообщений:
56765

Репутация: 101

[+] [-]
Вне форума [Профиль] [ЛС]

Телохранитель Тесс / Guarding Tess
Страна: США
Жанр: комедия
Год выпуска: 1994
Продолжительность: 01:35:30
Перевод 1: Профессиональный (двухголосый закадровый) Видеосервис
Перевод 2: Профессиональный (двухголосый закадровый) SDI Media
Cубтитры: английские
Оригинальная аудиодорожка: английский
Режиссер: Хью Уилсон / Hugh Wilson
В ролях: Николас Кейдж, Ширли МакЛейн, Остин Пендлтон, Эдвард Альберт, Джеймс Ребхорн, Ричард Гриффитс, Джон Роселиус, Дэвид Граф, Дон Йессо, Джеймс Лэлли...
Описание: Самое неблагодарное занятие для агента секретной службы — охранять женщину. Особенно, если эта женщина — бывшая жена президента США. В то время как коллеги Дага Чезвика рискуют жизнью под пулями террористов, он становится мишенью для насмешек взбалмошной Тесс.
Но конфликт сладкой парочки разрешается сам собой, когда подопечную Дага неожиданно похищают. Игры закончились. Пришло время для настоящей мужской работы.
Доп. информация: Перевод Видеосервис с DVD, перевод SDI Media с раздачи edich2. Синхронизация переводов - Dreven.
Сэмпл: http://multi-up.com/1058781
Тип релиза: WEB-DL 720p
Контейнер: MKV
Видео: 1280x720 (16:9), 23.976 fps, AVC, ~3884 Kbps, 0.176 bits/pixel
Аудио 1: Russian, 48.0 KHz, AC3, 2 ch, 256 Kbps - Видеосервис
Аудио 2: Russian, 48.0 KHz, AC3, 2 ch, 192 Kbps - SDI Media
Аудио 3: English, 48.0 KHz, AC3, 6 ch, 448 Kbps

MediaInfo

General
Unique ID : 204324081064714452979511956149451871101 (0x99B762F8C12CFBFA946D36514C93D37D)
Complete name : C:\Guarding Tess. WEB-DL 720p.mkv
Format : Matroska
Format version : Version 4 / Version 2
File size : 3.25 GiB
Duration : 1h 35mn
Overall bit rate : 4 877 Kbps
Movie name :
Encoded date : UTC 2015-07-11 20:05:57
Writing application : mkvmerge v8.1.0 ('Psychedelic Postcard') 64bit
Writing library : libebml v1.3.1 + libmatroska v1.4.2
DURATION : 01:35:30.176000000
NUMBER_OF_FRAMES : 179068
NUMBER_OF_BYTES : 320889856
_STATISTICS_WRITING_APP : mkvmerge v8.1.0 ('Psychedelic Postcard') 64bit
_STATISTICS_WRITING_DATE_UT : 2015-07-11 20:05:57
_STATISTICS_TAGS : BPS DURATION NUMBER_OF_FRAMES NUMBER_OF_BYTES
Video
ID : 1
Format : AVC
Format/Info : Advanced Video Codec
Format profile : High@L3.1
Format settings, CABAC : No
Format settings, ReFrames : 2 frames
Codec ID : V_MPEG4/ISO/AVC
Duration : 1h 35mn
Bit rate : 3 884 Kbps
Width : 1 280 pixels
Height : 720 pixels
Display aspect ratio : 16:9
Frame rate mode : Constant
Frame rate : 23.976 fps
Color space : YUV
Chroma subsampling : 4:2:0
Bit depth : 8 bits
Scan type : Progressive
Bits/(Pixel*Frame) : 0.176
Stream size : 2.59 GiB (80%)
Language : English
Default : Yes
Forced : No
Color range : Limited
Color primaries : BT.709
Transfer characteristics : BT.709
Matrix coefficients : BT.709
Audio #1
ID : 2
Format : AC-3
Format/Info : Audio Coding 3
Mode extension : CM (complete main)
Format settings, Endianness : Big
Codec ID : A_AC3
Duration : 1h 35mn
Bit rate mode : Constant
Bit rate : 256 Kbps
Channel(s) : 2 channels
Channel positions : Front: L R
Sampling rate : 48.0 KHz
Compression mode : Lossy
Stream size : 175 MiB (5%)
Title : Видеосервис
Language : Russian
Default : Yes
Forced : No
Audio #2
ID : 3
Format : AC-3
Format/Info : Audio Coding 3
Mode extension : CM (complete main)
Format settings, Endianness : Big
Codec ID : A_AC3
Duration : 1h 35mn
Bit rate mode : Constant
Bit rate : 192 Kbps
Channel(s) : 2 channels
Channel positions : Front: L R
Sampling rate : 48.0 KHz
Compression mode : Lossy
Stream size : 131 MiB (4%)
Title : SDI Media
Language : Russian
Default : No
Forced : No
Audio #3
ID : 4
Format : AC-3
Format/Info : Audio Coding 3
Mode extension : CM (complete main)
Format settings, Endianness : Big
Codec ID : A_AC3
Duration : 1h 35mn
Bit rate mode : Constant
Bit rate : 448 Kbps
Channel(s) : 6 channels
Channel positions : Front: L C R, Side: L R, LFE
Sampling rate : 48.0 KHz
Compression mode : Lossy
Stream size : 306 MiB (9%)
Language : English
Default : No
Forced : No
Text
ID : 5
Format : UTF-8
Codec ID : S_TEXT/UTF8
Codec ID/Info : UTF-8 Plain Text
Language : English
Default : No
Forced : No
Menu
00:00:00.000 : en:Start
00:07:13.000 : en:Another Tour Begins
00:12:56.000 : en:Where The Action Is
00:14:25.000 : en:Emergency Alarm
00:15:51.000 : en:Golf
00:18:05.000 : en:By The Book
00:19:02.000 : en:At The Diner
00:21:49.000 : en:Preparing For Mozart
00:26:18.000 : en:A Night At The Opera
00:31:38.000 : en:Ranking First Ladies
00:32:48.000 : en:"She Took Off!"
00:35:47.000 : en:A Chat With Earl
00:36:39.000 : en:Letting Doug Go
00:40:05.000 : en:A Call From Afo
00:41:33.000 : en:Outside The House
00:43:12.000 : en:Heading West; Brain Scan
00:48:24.000 : en:Memories
00:51:45.000 : en:Highball With Doug
00:55:27.000 : en:All Is Forgiven
00:56:02.000 : en:Planning The Visit
00:58:09.000 : en:Known Today?
00:59:33.000 : en:Fax From Washington
01:04:01.000 : en:Down By The Lake
01:07:46.000 : en:Washington Arrives
01:19:51.000 : en:Interrogation
01:22:06.000 : en:At The Farmhouse
01:23:41.000 : en:Digging Tess
01:30:19.000 : en:"Get In The Chair!"

Скриншоты


_________________
Показать сообщения:    

Текущее время: Сегодня 06:10

Часовой пояс: GMT



Вы не можете начинать темы
Вы не можете отвечать на сообщения
Вы не можете редактировать свои сообщения
Вы не можете удалять свои сообщения
Вы не можете голосовать в опросах
Вы не можете прикреплять файлы к сообщениям
Вы не можете скачивать файлы