Важное объявление!
У Нас Все раздачи мультитрекерные, при нуле пиров в релизах, можете смело вставать на закачку!
 
Автор Сообщение

HUNTER

Стаж:
4 года 4 месяца
Сообщений:
56733

Репутация: 101

[+] [-]
Вне форума [Профиль] [ЛС]

Телескоп Хаббл / IMAX - Hubble
Дата/Год выпуска: 2010
Страна: США
Жанр: Документальный
Продолжительность: 00:45:10
Перевод: Профессиональный (многоголосый закадровый)
Доп. инфо о переводе: ТНТ
Русские субтитры: нет
Оригинальная аудиодорожка: английский
Режиссер: Тони Майерс / Toni Myers
Описание: Используя визуальную мощь кинотеатров IMAX®, Hubble 3D позволит кинозрителям путешествовать через отдаленные галактики, исследовать великолепие и тайны нашей вселенной, и сопровождать работу астронавтов, на плечи которых возложены самые трудные и важные задачи в истории НАСА. Благодаря космическому телескопу Хаббл мы увидим вселенную такой, какой ее только можно увидеть в космосе с помощью самого мощного в мире телескопа.
Сэмпл: http://multi-up.com/1020632
качество: HDRip
формат: AVI
Видео: MPEG4, XviD, 720x400 (16/9), 23.976 fps, 1 717 Kbps (0.249 bit/pixel)
Аудио: AC-3, 48.0 KHz, 2 ch, 192 Kbps, CBR - русский
Аудио 2: AC-3, 48.0 KHz, 6 ch, 448 Kbps, CBR - английский

MediaInfo

ОбщееПолное имя : K:\Телескоп Хаббл.aviФормат : AVIФормат/Информация : Audio Video InterleaveРазмер файла : 746 МбайтПродолжительность : 43 м.Общий поток : 2371 Кбит/секНазвание фильма : Телескоп Хаббл / IMAX - Hubble (2010)Программа кодирования : VirtualDubMod 1.5.10.2 (build 2540/release)Библиотека кодирования : VirtualDubMod build 2540/releaseПравообладатель : miha2154
ВидеоИдентификатор : 0Формат : MPEG-4 VisualПрофиль формата : Advanced Simple@L5Параметр BVOP формата : 1Параметр QPel формата : НетПараметр GMC формата : Без точки переходаПараметр матрицы формата : ВыборочнаяИдентификатор кодека : XVIDИдентификатор кодека/Подсказка : XviDПродолжительность : 43 м.Битрейт : 1717 Кбит/секШирина : 720 пикселейВысота : 400 пикселейСоотношение сторон : 16:9Частота кадров : 23,976 кадра/секЦветовое пространство : YUVСубдискретизация насыщенности : 4:2:0Битовая глубина : 8 битТип развёртки : ПрогрессивнаяМетод сжатия : С потерямиБит/(Пиксели*Кадры) : 0.249Размер потока : 540 Мбайт (72%)Библиотека кодирования : XviD 65
Аудио #1Идентификатор : 1Формат : AC-3Формат/Информация : Audio Coding 3Расширение режима : CM (complete main)Параметр Endianness формата : BigИдентификатор кодека : 2000Продолжительность : 43 м.Вид битрейта : ПостоянныйБитрейт : 192 Кбит/секКаналы : 2 каналаРасположение каналов : Front: L RЧастота : 48,0 КГцБитовая глубина : 16 битМетод сжатия : С потерямиРазмер потока : 60,4 Мбайт (8%)Выравнивание : Разделение по промежуткамПродолжительность промежутка : 42 мс. (1,00 видеокадр)Время предзагрузки промежутка : 500 мс.Заголовок : Профессиональный (многоголосый закадровый) ТНТ
Аудио #2Идентификатор : 2Формат : AC-3Формат/Информация : Audio Coding 3Расширение режима : CM (complete main)Параметр Endianness формата : BigИдентификатор кодека : 2000Продолжительность : 43 м.Вид битрейта : ПостоянныйБитрейт : 448 Кбит/секКаналы : 6 каналовРасположение каналов : Front: L C R, Side: L R, LFEЧастота : 48,0 КГцБитовая глубина : 16 битМетод сжатия : С потерямиРазмер потока : 141 Мбайт (19%)Выравнивание : Разделение по промежуткамПродолжительность промежутка : 42 мс. (1,00 видеокадр)Время предзагрузки промежутка : 500 мс.Заголовок : Английский

Скриншоты


_________________
Показать сообщения:    

Текущее время: Сегодня 22:20

Часовой пояс: GMT



Вы не можете начинать темы
Вы не можете отвечать на сообщения
Вы не можете редактировать свои сообщения
Вы не можете удалять свои сообщения
Вы не можете голосовать в опросах
Вы не можете прикреплять файлы к сообщениям
Вы не можете скачивать файлы