Важное объявление!
У Нас Все раздачи мультитрекерные, при нуле пиров в релизах, можете смело вставать на закачку!
 
Автор Сообщение

HUNTER

Стаж:
4 года 4 месяца
Сообщений:
56734

Репутация: 101

[+] [-]
Вне форума [Профиль] [ЛС]

Телевикторина / Quiz Show
Страна: США
Студия: Baltimore Pictures, Wildwood Enterprises
Жанр: драма, история
Год выпуска: 1994
Продолжительность: 02:12:43
Перевод 1: Профессиональный (многоголосый закадровый) [по заказу 1 канала]
Перевод 2: Профессиональный (двухголосый закадровый) [ВидеоСервис - DVD9.R5, 2003]
Cубтитры: русские (надписи, полные), английские
Оригинальная аудиодорожка: английский
Режиссер: Роберт Редфорд / Robert Redford
В ролях: Джон Туртурро, Роб Морроу, Рэйф Файнс, Пол Скофилд, Дэвид Пэймер, Хэнк Азария, Кристофер МакДональд, Йохан Карло, Элизабет Уилсон, Аллан Рич, Мира Сорвино, Пол Гилфойл, Гриффин Данн, Брюс Олтмен, Мартин Скорсезе, Барри Левинсон, Дебра Монк, Марио Кантоне, Шоун Баттен, Джеффри Нордлинг, Билл Мур, Иллиана Даглас, Гретчен Эголф, Калиста Флокхарт, Уильям Фихтнер, Элен Кардона, Итан Хоук
Описание: Герберт Стемпл — суперигрок в знаменитом шоу «21», у которого все шансы на огромный выигрыш. Миллионы зрителей с нетерпением ждут финала. Но неожиданно любимец публики уходит со сцены. Вместо него на экране появляется другой участник.
Шоу продолжается, ставки снова растут, и в этот момент Стемпл возвращается. На этот раз ему не нужен главный приз. Бывший фаворит собирается разоблачить грандиозный обман и представить зрителям настоящих игроков, тех кто все это время оставался за кадром…- -Тип релиза: BDRip 720p (Исходник: Blu-ray / 1080p / AVC / 23,976 fps / 28000 kbps / DTS-HD MA 5.1 ch 24-bit 3883 kbps - BlueBird)
Контейнер: MKV
Видео: MPEG-4 AVC Video, 1280x692 / 1,85:1 (16:9) / ~11460 kbps / 23,976 fps / High@L4.1 / 2pass
Аудио 1: Russian: AC3 2.0 ch, 192 kbps, 48 kHz - многоголосый | (max1wq)
Аудио 2: Russian: AC3 2.0 ch, 192 kbps, 48 kHz - двухголосый | (melyan)
Аудио 3: English: DTS, 5.1 ch, 24-bit, 1509 kbps, 48 kHz
Формат субтитров: softsub (SRT)
Главы:

х264 Log

x264 [info]: frame I:1451 Avg QP:16.28 size:149076
x264 [info]: frame P:36492 Avg QP:17.83 size: 81596
x264 [info]: frame B:152981 Avg QP:19.71 size: 53664
x264 [info]: consecutive B-frames: 2.7% 1.8% 3.5% 7.6% 13.5% 45.2% 9.9% 2.3% 3.8% 4.8% 2.4% 1.2% 1.5%

MediaInfo

Общее
Уникальный идентификатор : 172222986515258450432976977198462423744 (0x8190F0D0AD3B4F6698FB5C3B3C0252C0)
Полное имя : N:\Телевикторина 1994.BDRip.720p.ПМ.ПД.Eng.mkv
Формат : Matroska
Версия формата : Version 4 / Version 2
Размер файла : 12,4 Гбайт
Продолжительность : 2 ч. 12 м.
Общий поток : 13,3 Мбит/сек
Название фильма : Quiz Show (1994)
Дата кодирования : UTC 2015-03-20 17:42:00
Программа кодирования : mkvmerge v7.6.0 ('Garden of Dreams') 32bit built on Feb 8 2015 12:51:39
Библиотека кодирования : libebml v1.3.1 + libmatroska v1.4.2
Видео
Идентификатор : 1
Формат : AVC
Формат/Информация : Advanced Video Codec
Профиль формата : High@L4.1
Параметр CABAC формата : Да
Параметр ReFrames формата : 9 кадров
Идентификатор кодека : V_MPEG4/ISO/AVC
Продолжительность : 2 ч. 12 м.
Битрейт : 11,5 Мбит/сек
Ширина : 1280 пикселей
Высота : 692 пикселя
Соотношение сторон : 1,85:1
Режим частоты кадров : Постоянный
Частота кадров : 23,976 кадра/сек
Цветовое пространство : YUV
Субдискретизация насыщенности : 4:2:0
Битовая глубина : 8 бит
Тип развёртки : Прогрессивная
Бит/(Пиксели*Кадры) : 0.540
Размер потока : 10,4 Гбайт (84%)
Библиотека кодирования : x264 core 144 r2525 40bb568
Настройки программы : cabac=1 / ref=9 / deblock=1:-3:-3 / analyse=0x3:0x133 / me=umh / subme=10 / psy=1 / psy_rd=1.05:0.08 / mixed_ref=1 / me_range=32 / chroma_me=1 / trellis=2 / 8x8dct=1 / cqm=0 / deadzone=21,11 / fast_pskip=0 / chroma_qp_offset=-2 / threads=6 / lookahead_threads=1 / sliced_threads=0 / nr=0 / decimate=1 / interlaced=0 / bluray_compat=0 / constrained_intra=0 / bframes=12 / b_pyramid=2 / b_adapt=2 / b_bias=0 / direct=3 / weightb=1 / open_gop=0 / weightp=2 / keyint=240 / keyint_min=23 / scenecut=40 / intra_refresh=0 / rc_lookahead=72 / rc=2pass / mbtree=0 / bitrate=11460 / ratetol=1.0 / qcomp=0.60 / qpmin=0 / qpmax=64 / qpstep=4 / cplxblur=20.0 / qblur=0.5 / vbv_maxrate=50000 / vbv_bufsize=62500 / nal_hrd=none / ip_ratio=1.30 / pb_ratio=1.20 / aq=1:0.80
Язык : English
Default : Да
Forced : Нет
Аудио #1
Идентификатор : 2
Формат : AC-3
Формат/Информация : Audio Coding 3
Расширение режима : CM (complete main)
Параметр Endianness формата : Big
Идентификатор кодека : A_AC3
Продолжительность : 2 ч. 12 м.
Вид битрейта : Постоянный
Битрейт : 192 Кбит/сек
Каналы : 2 канала
Расположение каналов : Front: L R
Частота : 48,0 КГц
Битовая глубина : 16 бит
Метод сжатия : С потерями
Размер потока : 183 Мбайт (1%)
Заголовок : AC3 2.0ch 192kbps - многоголосый (по заказу 1 канала)
Язык : Russian
Default : Да
Forced : Нет
Аудио #2
Идентификатор : 3
Формат : AC-3
Формат/Информация : Audio Coding 3
Расширение режима : CM (complete main)
Параметр Endianness формата : Big
Идентификатор кодека : A_AC3
Продолжительность : 2 ч. 12 м.
Вид битрейта : Постоянный
Битрейт : 192 Кбит/сек
Каналы : 2 канала
Расположение каналов : Front: L R
Частота : 48,0 КГц
Битовая глубина : 16 бит
Метод сжатия : С потерями
Размер потока : 183 Мбайт (1%)
Заголовок : AC3 2.0ch 192kbps - двухголосый (DVD9.R5 - ВидеоСервис, 2003)
Язык : Russian
Default : Нет
Forced : Нет
Аудио #3
Идентификатор : 4
Формат : DTS
Формат/Информация : Digital Theater Systems
Режим : 16
Параметр Endianness формата : Big
Идентификатор кодека : A_DTS
Продолжительность : 2 ч. 12 м.
Вид битрейта : Постоянный
Битрейт : 1509 Кбит/сек
Каналы : 6 каналов
Расположение каналов : Front: L C R, Side: L R, LFE
Частота : 48,0 КГц
Битовая глубина : 24 бит
Метод сжатия : С потерями
Размер потока : 1,40 Гбайт (11%)
Заголовок : DTS 5.1ch 24-bit 1509kbps - original
Язык : English
Default : Нет
Forced : Нет
Текст #1
Идентификатор : 5
Формат : UTF-8
Идентификатор кодека : S_TEXT/UTF8
Идентификатор кодека/Информация : UTF-8 Plain Text
Заголовок : nadpisi for DVO
Язык : Russian
Default : Да
Forced : Да
Текст #2
Идентификатор : 6
Формат : UTF-8
Идентификатор кодека : S_TEXT/UTF8
Идентификатор кодека/Информация : UTF-8 Plain Text
Заголовок : R5
Язык : Russian
Default : Нет
Forced : Нет
Текст #3
Идентификатор : 7
Формат : UTF-8
Идентификатор кодека : S_TEXT/UTF8
Идентификатор кодека/Информация : UTF-8 Plain Text
Язык : English
Default : Нет
Forced : Нет
Текст #4
Идентификатор : 8
Формат : UTF-8
Идентификатор кодека : S_TEXT/UTF8
Идентификатор кодека/Информация : UTF-8 Plain Text
Заголовок : SDH
Язык : English
Default : Нет
Forced : Нет
Меню
00:00:00.000 : en: 00:00:00
00:00:13.513 : en: 00:00:13
00:05:07.849 : en: 00:05:07
00:08:38.309 : en: 00:08:38
00:13:18.881 : en: 00:13:18
00:17:07.652 : en: 00:17:07
00:24:21.710 : en: 00:24:21
00:30:15.689 : en: 00:30:15
00:36:56.047 : en: 00:36:56
00:39:44.799 : en: 00:39:44
00:42:35.052 : en: 00:42:35
00:51:09.316 : en: 00:51:09
00:55:54.768 : en: 00:55:54
00:58:53.780 : en: 00:58:53
01:06:27.901 : en: 01:06:27
01:09:34.128 : en: 01:09:34
01:13:35.620 : en: 01:13:35
01:16:46.310 : en: 01:16:46
01:22:49.715 : en: 01:22:49
01:24:14.007 : en: 01:24:14
01:33:44.702 : en: 01:33:44
01:39:08.276 : en: 01:39:08
01:43:25.491 : en: 01:43:25
01:47:13.260 : en: 01:47:13
01:51:58.378 : en: 01:51:58
01:53:43.734 : en: 01:53:43
01:58:06.079 : en: 01:58:06
02:04:37.804 : en: 02:04:37
02:05:38.489 : en: 02:05:38
02:08:43.466 : en: 02:08:43

_________________
Показать сообщения:    

Текущее время: Сегодня 08:56

Часовой пояс: GMT



Вы не можете начинать темы
Вы не можете отвечать на сообщения
Вы не можете редактировать свои сообщения
Вы не можете удалять свои сообщения
Вы не можете голосовать в опросах
Вы не можете прикреплять файлы к сообщениям
Вы не можете скачивать файлы