Важное объявление!
У Нас Все раздачи мультитрекерные, при нуле пиров в релизах, можете смело вставать на закачку!
 
Автор Сообщение

HUNTER

Стаж:
4 года 4 месяца
Сообщений:
56790

Репутация: 101

[+] [-]
Вне форума [Профиль] [ЛС]

Телеведущий: И снова здравствуйте / Anchorman 2: The Legend Continues-
Страна: США
Жанр: комедия
Год выпуска: 2013
Продолжительность: 01:52:59
Перевод: Профессиональный (дублированный)
Cубтитры: русские, украинские, английские
Оригинальная аудиодорожка: английская-Режиссер: Адам МакКей / Adam McKay
В ролях: Уилл Феррелл, Стив Карелл, Пол Радд, Дэвид Кокнер, Кристина Эпплгейт, Дилан Бейкер, Миган Гуд, Джуда Нельсон, Джеймс Марсден, Грег Киннер-Описание: Сюжет разворачивается в 1979-80 годах прошлого века, то есть спустя приблизительно 4-5 лет после финала оригинальной ленты. Главные герой, Рон Бургунди (Феррелл) и его очаровательная супруга Вероника (Эпплгейт) вот уже несколько лет ведут совместные информационные выпуски новостей на одном из главных каналов Нью-Йорка. Однако счастье их оказалось не таким уж и продолжительным: их работодатель, Мак Таннен (Форд) решает повысить Веронику до поста ведущего журналиста, а Рона попросту выгнать на улицу… Естественно, что наш герой никак не может согласится с подобным ходом вещей и уходит из семьи несмотря на то, что у него с женой теперь есть маленький сын. Опустившись на самое дно жизни, Бургунди вновь получает шанс вернуться на вершину, вновь став одним из топовых ведущих. Только теперь не на обыкновенном канале, а в компании экспериментальных круглосуточных новостей! Никто не верил в успешность данной затеи, однако Рон и его вновь восстановленная команда покажут что могут перевернуть привычный мир новостей вверх дном и сделать из них самое настоящее шоу, эффектнее самого запутанного детектива!
-Рип от CRiSC!
Качество видео: BDRip 720p
Формат видео: MKV
Видео: x.264, 1280x534, 5699 Kbps, 23.976 fps
Аудио 1: AC3, 640 Kbps, 48000 Hz, 5.1 channels
Аудио 2: DTS, 1509 Kbps, 48000 Hz, 5.1 channels
Формат субтитров: softsub (SRT) - русские (forced, full), украинские, английские
-СкриншотыРезервные скриншоты
-
MediaInfo
Format : Matroska
Format version : Version 2
File size : 6.20 GiB
Duration : 1h 52mn
Overall bit rate : 7 852 Kbps
Movie name : Anchorman 2: The Legend Continues (2013) - Release for HDCLUB
Encoded date : UTC 2014-04-28 18:21:17
Writing application : mkvmerge v5.7.0 ('The Whirlwind') built on Jul 8 2012 20:08:51
Writing library : libebml v1.2.3 + libmatroska v1.3.0
Video
ID : 1
Format : AVC
Format/Info : Advanced Video Codec
Format profile : High@L4.1
Format settings, CABAC : Yes
Format settings, ReFrames : 12 frames
Codec ID : V_MPEG4/ISO/AVC
Duration : 1h 52mn
Bit rate : 5 699 Kbps
Width : 1 280 pixels
Height : 534 pixels
Display aspect ratio : 2.40:1
Frame rate mode : Constant
Frame rate : 23.976 fps
Color space : YUV
Chroma subsampling : 4:2:0
Bit depth : 8 bits
Scan type : Progressive
Bits/(Pixel*Frame) : 0.348
Stream size : 4.38 GiB (71%)
Writing library : x264 core 125 r2200 999b753
Encoding settings : cabac=1 / ref=12 / deblock=1:-3:-3 / analyse=0x3:0x133 / me=umh / subme=11 / psy=1 / psy_rd=1.05:0.00 / mixed_ref=1 / me_range=48 / chroma_me=1 / trellis=2 / 8x8dct=1 / cqm=0 / deadzone=21,11 / fast_pskip=0 / chroma_qp_offset=-2 / threads=12 / lookahead_threads=2 / sliced_threads=0 / nr=0 / decimate=1 / interlaced=0 / bluray_compat=0 / constrained_intra=0 / bframes=9 / b_pyramid=2 / b_adapt=2 / b_bias=0 / direct=3 / weightb=1 / open_gop=0 / weightp=2 / keyint=250 / keyint_min=23 / scenecut=40 / intra_refresh=0 / rc_lookahead=40 / rc=2pass / mbtree=0 / bitrate=5699 / ratetol=1.0 / qcomp=0.60 / qpmin=0 / qpmax=69 / qpstep=4 / cplxblur=20.0 / qblur=0.5 / vbv_maxrate=62500 / vbv_bufsize=78125 / nal_hrd=none / ip_ratio=1.40 / pb_ratio=1.30 / aq=1:0.80
Language : English
Default : Yes
Forced : No
Audio #1
ID : 2
Format : AC-3
Format/Info : Audio Coding 3
Mode extension : CM (complete main)
Format settings, Endianness : Big
Codec ID : A_AC3
Duration : 1h 52mn
Bit rate mode : Constant
Bit rate : 640 Kbps
Channel(s) : 6 channels
Channel positions : Front: L C R, Side: L R, LFE
Sampling rate : 48.0 KHz
Bit depth : 16 bits
Compression mode : Lossy
Stream size : 517 MiB (8%)
Title : |Дубляж, Blu-Ray CEE|
Language : Russian
Default : Yes
Forced : No
Audio #2
ID : 3
Format : DTS
Format/Info : Digital Theater Systems
Mode : 16
Format settings, Endianness : Big
Codec ID : A_DTS
Duration : 1h 52mn
Bit rate mode : Constant
Bit rate : 1 509 Kbps
Channel(s) : 6 channels
Channel positions : Front: L C R, Side: L R, LFE
Sampling rate : 48.0 KHz
Bit depth : 24 bits
Compression mode : Lossy
Stream size : 1.19 GiB (19%)
Language : English
Default : No
Forced : No
Text #1
ID : 4
Format : UTF-8
Codec ID : S_TEXT/UTF8
Codec ID/Info : UTF-8 Plain Text
Title : Forced
Language : Russian
Default : Yes
Forced : No
Text #2
ID : 5
Format : UTF-8
Codec ID : S_TEXT/UTF8
Codec ID/Info : UTF-8 Plain Text
Language : Russian
Default : No
Forced : No
Text #3
ID : 6
Format : UTF-8
Codec ID : S_TEXT/UTF8
Codec ID/Info : UTF-8 Plain Text
Language : Ukrainian
Default : No
Forced : No
Text #4
ID : 7
Format : UTF-8
Codec ID : S_TEXT/UTF8
Codec ID/Info : UTF-8 Plain Text
Language : English
Default : No
Forced : No
Menu
00:00:00.000 : :00:00:00.000
00:08:05.193 : :00:08:05.193
00:13:03.032 : :00:13:03.032
00:18:21.851 : :00:18:21.851
00:23:37.541 : :00:23:37.541
00:31:31.431 : :00:31:31.431
00:35:21.745 : :00:35:21.745
00:39:44.882 : :00:39:44.882
00:44:28.791 : :00:44:28.791
00:49:56.368 : :00:49:56.368
00:54:22.885 : :00:54:22.885
01:00:06.394 : :01:00:06.394
01:07:31.339 : :01:07:31.339
01:11:58.272 : :01:11:58.272
01:18:04.471 : :01:18:04.471
01:23:14.281 : :01:23:14.281
01:27:40.005 : :01:27:40.005
01:35:15.877 : :01:35:15.877
01:40:17.929 : :01:40:17.929
01:47:05.252 : :01:47:05.252
-

_________________
Показать сообщения:    

Текущее время: Сегодня 14:14

Часовой пояс: GMT



Вы не можете начинать темы
Вы не можете отвечать на сообщения
Вы не можете редактировать свои сообщения
Вы не можете удалять свои сообщения
Вы не можете голосовать в опросах
Вы не можете прикреплять файлы к сообщениям
Вы не можете скачивать файлы