Важное объявление!
У Нас Все раздачи мультитрекерные, при нуле пиров в релизах, можете смело вставать на закачку!
 
Автор Сообщение

HUNTER

Стаж:
4 года 4 месяца
Сообщений:
56755

Репутация: 101

[+] [-]
Вне форума [Профиль] [ЛС]

Твои, мои и наши / Yours, Mine & Ours
Страна: США
Жанр: мелодрама, комедия, семейный
Год выпуска: 2005
Продолжительность: 01:28:03
Перевод 1: Профессиональный (дублированный) Видеосервис
Перевод 2: Авторский (одноголосый закадровый) Евгений Гранкин
Cубтитры: русские, английские
Оригинальная аудиодорожка: английский
Режиссер: Раджа Госнелл / Raja Gosnell
В ролях: Деннис Куэйд, Рене Руссо, Шон Фэрис, Катя Певек, Дин Коллинз, Тайлер Патрик Джонс, Хейли Рэмм, Брекен Палмер, Бриджер Палмер, Тай Паниц...
Описание: Овдовевший адмирал береговой охраны встречает женщину своей мечты, недавно потерявшую мужа. Два уже немолодых человека полюбили друг друга и решили пожениться.
А что делать — любящие люди должны жить вместе, даже если у него восемь детей, а у неё их десять. И пока дети сражаются друг с другом за территорию, их родители проходят проверку на крепость чувств…
Доп. информация: За перевод Гранкина спасибо Tjutjkin, в переводе был сильный плавающий рассинхрон, устранен настолько, насколько это было возможно.
Сэмпл: http://multi-up.com/1055918
Тип релиза: WEB-DL 720p
Контейнер: MKV
Видео: 1280x542 (2.35:1), 23.976 fps, AVC, ~3909 Kbps, 0.235 bits/pixel
Аудио 1: Russian, 48.0 KHz, AC3, 6 ch, 384 Kbps - Видеосервис
Аудио 2: Russian, 48.0 KHz, AC3, 2 ch, 192 Kbps - Евгений Гранкин
Аудио 3: English, 48.0 KHz, AC3, 6 ch, 384 Kbps

MediaInfo

General
Unique ID : 178760838428899678488580012210567272786 (0x867C15CD232E0B9D93B8D678C5A05952)
Complete name : D:\Yours Mine And Ours. WEB-DL 720p.mkv
Format : Matroska
Format version : Version 4 / Version 2
File size : 3.06 GiB
Duration : 1h 28mn
Overall bit rate : 4 968 Kbps
Movie name :
Encoded date : UTC 2015-06-28 06:34:33
Writing application : mkvmerge v8.1.0 ('Psychedelic Postcard') 64bit
Writing library : libebml v1.3.1 + libmatroska v1.4.2
DURATION : 01:21:32.430000000
NUMBER_OF_FRAMES : 858
NUMBER_OF_BYTES : 60937
_STATISTICS_WRITING_APP : mkvmerge v8.1.0 ('Psychedelic Postcard') 64bit
_STATISTICS_WRITING_DATE_UT : 2015-06-28 06:34:33
_STATISTICS_TAGS : BPS DURATION NUMBER_OF_FRAMES NUMBER_OF_BYTES
Video
ID : 1
Format : AVC
Format/Info : Advanced Video Codec
Format profile : Main@L3.1
Format settings, CABAC : No
Format settings, ReFrames : 2 frames
Codec ID : V_MPEG4/ISO/AVC
Duration : 1h 28mn
Bit rate : 3 909 Kbps
Width : 1 280 pixels
Height : 542 pixels
Display aspect ratio : 2.35:1
Frame rate mode : Constant
Frame rate : 23.976 fps
Color space : YUV
Chroma subsampling : 4:2:0
Bit depth : 8 bits
Scan type : Progressive
Bits/(Pixel*Frame) : 0.235
Stream size : 2.40 GiB (79%)
Language : English
Default : Yes
Forced : No
Color range : Limited
Color primaries : BT.709
Transfer characteristics : BT.709
Matrix coefficients : BT.709
Audio #1
ID : 2
Format : AC-3
Format/Info : Audio Coding 3
Mode extension : CM (complete main)
Format settings, Endianness : Big
Codec ID : A_AC3
Duration : 1h 28mn
Bit rate mode : Constant
Bit rate : 384 Kbps
Channel(s) : 6 channels
Channel positions : Front: L C R, Side: L R, LFE
Sampling rate : 48.0 KHz
Compression mode : Lossy
Stream size : 242 MiB (8%)
Title : Видеосервис
Language : Russian
Default : Yes
Forced : No
Audio #2
ID : 3
Format : AC-3
Format/Info : Audio Coding 3
Mode extension : CM (complete main)
Format settings, Endianness : Big
Codec ID : A_AC3
Duration : 1h 28mn
Bit rate mode : Constant
Bit rate : 192 Kbps
Channel(s) : 2 channels
Channel positions : Front: L R
Sampling rate : 48.0 KHz
Compression mode : Lossy
Stream size : 121 MiB (4%)
Title : Евгений Гранкин
Language : Russian
Default : No
Forced : No
Audio #3
ID : 4
Format : AC-3
Format/Info : Audio Coding 3
Mode extension : CM (complete main)
Format settings, Endianness : Big
Codec ID : A_AC3
Duration : 1h 28mn
Bit rate mode : Constant
Bit rate : 384 Kbps
Channel(s) : 6 channels
Channel positions : Front: L C R, Side: L R, LFE
Sampling rate : 48.0 KHz
Compression mode : Lossy
Stream size : 242 MiB (8%)
Language : English
Default : No
Forced : No
Text #1
ID : 5
Format : UTF-8
Codec ID : S_TEXT/UTF8
Codec ID/Info : UTF-8 Plain Text
Language : Russian
Default : No
Forced : No
Text #2
ID : 6
Format : UTF-8
Codec ID : S_TEXT/UTF8
Codec ID/Info : UTF-8 Plain Text
Language : English
Default : No
Forced : No

Скриншоты


_________________
Показать сообщения:    

Текущее время: Сегодня 09:16

Часовой пояс: GMT



Вы не можете начинать темы
Вы не можете отвечать на сообщения
Вы не можете редактировать свои сообщения
Вы не можете удалять свои сообщения
Вы не можете голосовать в опросах
Вы не можете прикреплять файлы к сообщениям
Вы не можете скачивать файлы