Важное объявление!
У Нас Все раздачи мультитрекерные, при нуле пиров в релизах, можете смело вставать на закачку!
 
Автор Сообщение

Vanya_o3

[Профиль] [ЛС]

-
Год выпуска: 2013
Страна: США, ЮАР
Жанр: боевик, триллер, криминал, драма
Продолжительность: 01:25:10-Перевод: Профессиональный (двухголосый)
Режиссер: Мукунда Майкл Дьюил / Mukunda Michael Dewil
В ролях: Пол Уокер (Michael Woods), Наима МакЛин (Rachel Shabangu), Ги Де Виллерс (Detective Smith), Лэйла Хайдариан (Angelica Moore), Тшепо Масеко (Lieutenant), Андриан Мазив (Journalist Benji), Велиль Нзуза (Mohawk), Мангалисо Нгема (Judge), Эрнест Кубайи (Crackhead), Элиз Ван Никерк (Car Rental Receptionist), Сизо Моцоко (Car Charger Kid 1), Сививе Мазибуко (Car Charger Kid 2)-Описание: Что делать, если из багажника арендованной в незнакомом городе тачки в салон вываливается связанная девушка? Сдать бедолагу в ближайший полицейский участок? Спасибо, Кэп, но не все так просто! Эта девушка важный свидетель в большом заговоре, и ее уже приговорили к смерти… На хвосте висят все копы города, выход один — вдавить педаль газа в пол и считать дырки от пуль и разбитые полицейские машины! Гонки на выживание начинаются!--Качество: WEBDLRip - AVC
Контейнер: MKV
Видео кодек: AVC
Аудио кодек: AC3
Видео: AVC, 1024x432 (2.35:1), 2156 kbps, 23,976 fps, 0,203 bpp
Аудио: русский / AC3 / 5.1 / 48 kHz / 448 kbps / 16 bit -Рип: and77200

Скриншоты



Media Info

General
Complete name : E:\торрент\Тачка №19 (2013)WEBDLRip - AVC.mkv
Format : Matroska
File size : 1.58 GiB
Duration : 1h 25mn
Overall bit rate : 2 658 Kbps
Encoded date : UTC 2013-04-14 04:58:24
Writing application : mkvmerge v5.7.0 ('The Whirlwind') built on Jul 8 2012 20:08:51
Writing library : libebml v1.2.3 + libmatroska v1.3.0
Video
ID : 1
Format : AVC
Format/Info : Advanced Video Codec
Format profile : High@L4.1
Format settings, CABAC : Yes
Format settings, ReFrames : 5 frames
Muxing mode : Container profile=Unknown@4.1
Codec ID : V_MPEG4/ISO/AVC
Duration : 1h 25mn
Bit rate : 2 157 Kbps
Nominal bit rate : 2 300 Kbps
Width : 1 024 pixels
Height : 432 pixels
Display aspect ratio : 2.35:1
Frame rate : 23.976 fps
Resolution : 24 bits
Colorimetry : 4:2:0
Scan type : Progressive
Bits/(Pixel*Frame) : 0.203
Stream size : 1.28 GiB (81%)
Writing library : x264 core 125 r2208 d9d2288
Encoding settings : cabac=1 / ref=5 / deblock=1:0:0 / analyse=0x3:0x133 / me=umh / subme=9 / psy=1 / psy_rd=1.00:0.00 / mixed_ref=1 / me_range=32 / chroma_me=1 / trellis=2 / 8x8dct=1 / cqm=0 / deadzone=21,11 / fast_pskip=1 / chroma_qp_offset=-2 / threads=3 / lookahead_threads=1 / sliced_threads=0 / nr=0 / decimate=1 / interlaced=0 / bluray_compat=0 / constrained_intra=0 / bframes=5 / b_pyramid=2 / b_adapt=2 / b_bias=0 / direct=1 / weightb=1 / open_gop=0 / weightp=2 / keyint=250 / keyint_min=23 / scenecut=40 / intra_refresh=0 / rc_lookahead=60 / rc=abr / mbtree=1 / bitrate=2300 / ratetol=1.0 / qcomp=0.60 / qpmin=0 / qpmax=69 / qpstep=4 / ip_ratio=1.40 / aq=1:1.00
Audio
ID : 2
Format : AC-3
Format/Info : Audio Coding 3
Codec ID : A_AC3
Duration : 1h 25mn
Bit rate mode : Constant
Bit rate : 448 Kbps
Channel(s) : 6 channels
Channel positions : Front: L C R, Surround: L R, LFE
Sampling rate : 48.0 KHz
Stream size : 273 MiB (17%)
Language : Russian
 
Показать сообщения:    

Текущее время: Сегодня 04:46

Часовой пояс: GMT



Вы не можете начинать темы
Вы не можете отвечать на сообщения
Вы не можете редактировать свои сообщения
Вы не можете удалять свои сообщения
Вы не можете голосовать в опросах
Вы не можете прикреплять файлы к сообщениям
Вы не можете скачивать файлы