Важное объявление!
У Нас Все раздачи мультитрекерные, при нуле пиров в релизах, можете смело вставать на закачку!
 
Автор Сообщение

HUNTER

Стаж:
4 года 4 месяца
Сообщений:
56772

Репутация: 101

[+] [-]
Вне форума [Профиль] [ЛС]

Тарзан / Tarzan
Страна: Германия
Жанр: семейный, приключения
Продолжительность: 01:34:11
Год выпуска: 2013
Перевод: Профессиональный (дублированный)
Русские субтитры: нет
Режиссёр: Райнхард Клоосс / Reinhard Klooss
Роли озвучивали: Латс, Джейми Рэй Ньюман, Спенсер Лок, Роберт Капрон, Марк Деклин, Брайан Хаски, Тревор Ст. Джон, Крэйг Гарнер, Крис Фрайс, Эдд Осмонд
Описание: Во время крушения американского воздушного лайнера в джунглях погибли все пассажиры, выжил лишь один младенец. Он стал приемышем в стае диких обезьян, которые выкормили, вырастили его, научили выживать в этом жестком мире естественного отбора… Пришло время, и теперь мощный и ловкий, он должен защитить свой мир от врагов. Но главное — он должен снова стать человеком.
Семпл: http://multi-up.com/968661
Качество: BDRip
Формат: AVI
Видео: XviD, 1758 Кбит/с, 720x304, 23,976 кадра/сек
Аудио: AC3, 6 ch, 448 Кбит/с, 48,0 КГц
Сравнение:http://rutracker.org/forum/viewtopic.php?t=4697599 http://screenshotcomparison.com/comparison/71515

Подробные технические данные

I:\Тарзан\Tarzan.2013.D.BDRip_[New-Team]_by_avproh.avi General Complete name : I:\Тарзан\Tarzan.2013.D.BDRip_[New-Team]_by_avproh.avi Format : AVI Format/Info : Audio Video Interleave File size : 1.46 GiB Duration : 1h 34mn Overall bit rate : 2 215 Kbps Writing application : VirtualDubMod 1.5.10.3 | www.virtualdub-fr.org || (build 2550/release) Writing library : VirtualDubMod build 2550/release Video #0 ID : 0 Format : MPEG-4 Visual Format profile : Advanced Simple@L5 Format settings, BVOP : 1 Format settings, QPel : No Format settings, GMC : No warppoints Format settings, Matrix : Custom Codec ID : XVID Codec ID/Hint : XviD Duration : 1h 34mn Bit rate : 1 758 Kbps Width : 720 pixels Height : 304 pixels Display aspect ratio : 2.35:1 Frame rate : 23.976 fps Color space : YUV Chroma subsampling : 4:2:0 Bit depth : 8 bits Scan type : Progressive Compression mode : Lossy Bits/(Pixel*Frame) : 0.335 Stream size : 1.16 GiB (79%) Writing library : XviD 73 Audio #1 ID : 1 Format : AC-3 Format/Info : Audio Coding 3 Mode extension : CM (complete main) Format settings, Endianness : Big Codec ID : 2000 Duration : 1h 34mn Bit rate mode : Constant Bit rate : 448 Kbps Channel count : 6 channels Channel positions : Front: L C R, Side: L R, LFE Sampling rate : 48.0 KHz Bit depth : 16 bits Compression mode : Lossy Stream size : 302 MiB (20%) Alignment : Split accross interleaves Interleave, duration : 42 ms (1.00 video frame) Interleave, preload duration : 500 ms

Скриншоты


_________________
Показать сообщения:    

Текущее время: Сегодня 17:24

Часовой пояс: GMT



Вы не можете начинать темы
Вы не можете отвечать на сообщения
Вы не можете редактировать свои сообщения
Вы не можете удалять свои сообщения
Вы не можете голосовать в опросах
Вы не можете прикреплять файлы к сообщениям
Вы не можете скачивать файлы