Важное объявление!
У Нас Все раздачи мультитрекерные, при нуле пиров в релизах, можете смело вставать на закачку!
 
Автор Сообщение

HUNTER

Стаж:
4 года 4 месяца
Сообщений:
56749

Репутация: 101

[+] [-]
Вне форума [Профиль] [ЛС]


Школа раннего развития
Танцы для малышей от 2 до 6 лет
-Год выпуска: 2011
Страна: Россия
Жанр: Детские танцы, детский фитнес
Продолжительность: 41:14
Автор: Валерий Тешев
Язык: Русский
Перевод: нет
Субтитры: нет--Описание: Когда ребенок счастлив, он танцует!
Танец – это не только движения под музыку, но и полет фантазии, развитие воображения и, бесспорно, укрепление физического состояния ребенка.
Большинство детских врачей по всему миру признают танцы для детей одной из лучших физических практик. В нашем фильме: под руководством хореографа школы раннего развития вы и ваш ребенок освоите элементарные упражнения и сложные движения из различных танцев. Скучно не будет! Занимаясь по этой программе с вашим малышом, вы сможете:
– Для самых маленьких – поддержать врожденное стремление ребенка к разнообразным движениям, научить его менять позы и положения. В эти годы жизни интенсивно развивается подвижность рук и ног, ребенок набирает силы;
– Для детей постарше – выработать у ребенка правильную осанку и легкую, красивую походку. Малыш научится выполнять все основные виды ритмических движений и импровизировать под музыку.
Хотите увидеть, как ваш непоседливый «зайка» или неуклюжий «медвежонок» превращается в «маленького лебедя»? Подарите вашему ребенку умение танцевать красиво!
-Качество: DVDRip
Формат: AVI
Видео кодек: XviD build 50
Аудио кодек: MPEG Layer 3
Видео: 720 x 400, 16/9, 1 060 Kbps, 25.000 fps, 0.147 b/px
Аудио: 128 Kbps, CBR, 48.0 KHz, 2 ch.-

MediaInfo

Код: copyText_writeLink('this.parentNode.parentNode.nextSibling.nextSibling'); Общее
Полное имя : F:\Раздачии\Танцы для малышей 2-6 лет.avi
Формат : AVI
Формат/Информация : Audio Video Interleave
Размер файла : 354 Мбайт
Продолжительность : 41 м.
Общий поток : 1201 Кбит/сек
Название фильма : Танцы для малышей 2-6 лет
Программа кодирования : MEncoder SVN-r30881(20100311-gcc4.3.3)
Правообладатель : Olu6ka
Видео
Идентификатор : 0
Формат : MPEG-4 Visual
Профиль формата : Advanced Simple@L5
Параметр BVOP формата : 2
Параметр QPel формата : Нет
Параметр GMC формата : Без точки перехода
Параметр матрицы формата : Default (H.263)
Идентификатор кодека : XVID
Идентификатор кодека/Подсказка : XviD
Продолжительность : 41 м.
Битрейт : 1060 Кбит/сек
Ширина : 720 пикселей
Высота : 400 пикселей
Соотношение сторон : 16:9
Соотношение сторон в оригинале : 16:9
Частота кадров : 25,000 кадров/сек
Цветовое пространство : YUV
Субдискретизация насыщенности : 4:2:0
Битовая глубина : 8 бит
Тип развёртки : Прогрессивная
Метод сжатия : С потерями
Бит/(Пиксели*Кадры) : 0.147
Размер потока : 313 Мбайт (88%)
Библиотека кодирования : XviD 1.2.1 (UTC 2008-12-04)
Аудио
Идентификатор : 1
Формат : MPEG Audio
Версия формата : Version 1
Профиль формата : Layer 3
Режим : Joint stereo
Расширение режима : MS Stereo
Идентификатор кодека : 55
Идентификатор кодека/Подсказка : MP3
Продолжительность : 41 м.
Вид битрейта : Постоянный
Битрейт : 128 Кбит/сек
Каналы : 2 канала
Частота : 48,0 КГц
Метод сжатия : С потерями
Задержка видео : 40 мс.
Размер потока : 37,8 Мбайт (11%)
Выравнивание : Соединение по промежуткам
Продолжительность промежутка : 24 мс. (0,60 видеокадр)
Время предзагрузки промежутка : 504 мс.

Скриншоты


_________________
Показать сообщения:    

Текущее время: Сегодня 22:54

Часовой пояс: GMT



Вы не можете начинать темы
Вы не можете отвечать на сообщения
Вы не можете редактировать свои сообщения
Вы не можете удалять свои сообщения
Вы не можете голосовать в опросах
Вы не можете прикреплять файлы к сообщениям
Вы не можете скачивать файлы