Важное объявление!
У Нас Все раздачи мультитрекерные, при нуле пиров в релизах, можете смело вставать на закачку!
 
Автор Сообщение

HUNTER

Стаж:
4 года 4 месяца
Сообщений:
56734

Репутация: 101

[+] [-]
Вне форума [Профиль] [ЛС]

Танцующий в пустыне / Desert Dancer«Свобода требует мужества»
Страна: Великобритания, Россия
Жанр: драма, биография
Год выпуска: 2014
Продолжительность: 01:39:36
-
Перевод: Профессиональный (дублированный) Back Board Cinema
Cубтитры: русские (хардсаб, пояснения)
Оригинальная аудиодорожка: нет
-
Режиссер: Ричард Рэймонд / Richard Raymond
В ролях: Назанин Бониади, Фрида Пинто, Том Каллен, Рис Ричи, Саймон Кассианидес, Марама Корлетт, Акин Гази, Макрам Хури, Толга Сафер, Давуд Хадами
-
Описание: Фильм основан на невероятной, но реальной истории борьбы иранского танцора Афшина Гаффариана за свободу самовыражения через танец в стране, где этот вид искусства находится вне закона. Используя YouTube в качестве учебника, главный герой вместе с друзьями создает подпольную танцевальную группу. В пустыне, вдали от глаз полиции, они устраивают секретное танцевальное шоу. Несмотря на все меры предосторожности, этот акт творчества, мужества и неповиновения влечет за собой события, из-за которых жизнь Афшина оказывается в опасности. «Танцующий в пустыне» - это правдивая история о молодежи, которая подвергает риску свою жизнь в борьбе за права человека и исполнение своей мечты.
[img]https://rating.kinopoisk.ru/682938.gif[/img]
>>> Собственная запись со спутника Eutelsat 36A/36B (36°E) | Кинопремьера HD (эфир 14.10.2016г.)
Тип релиза: HDTV 1080i
Контейнер: MKV
Видео: MPEG-4 AVC / PAL 16:9 / 1920x1080 (2,40:1) / 5700 kbps / 25,000 fps / 0.055 bit/pixel / High@L4
Аудио 1: Russian / Dolby Digital Audio / 2.0 Ch / 48 kHz / 384 kbps / 16 bit | DUB | Back Board Cinema
Аудио 2: Russian / MPEG-2 Audio / 2.0 Ch / 48 kHz / 192 kbps / 16 bit | DUB | Back Board Cinema
Формат субтитров: hardsub (неотключаемые)

MediaInfo

Код:
Общее
Уникальный идентификатор                 : 230755349369720424522511929949984873932 (0xAD99DD1C9D3D3FD580190AF645A35DCC)
Полное имя                               : D:\Desert Dancer 2014 1080i HDTV DD2.0 MPEG4-flaSI-I\Desert Dancer 2014 1080i HDTV DD2.0 MPEG4.mkv
Формат                                   : Matroska
Версия формата                           : Version 4 / Version 2
Размер файла                             : 4,37 Гбайт
Продолжительность                        : 1 ч. 39 м.
Общий поток                              : 6279 Кбит/сек
Название фильма                          : Release for RuTracker © flaSI-I
Дата кодирования                         : UTC 2016-10-14 19:37:46
Программа кодирования                    : mkvmerge v9.4.2 ('So High') 64bit
Библиотека кодирования                   : libebml v1.3.4 + libmatroska v1.4.5
Видео
Идентификатор                            : 1
Формат                                   : AVC
Формат/Информация                        : Advanced Video Codec
Профиль формата                          : High@L4
Параметр CABAC формата                   : Да
Параметр ReFrames формата                : 4 кадра
Параметр GOP формата                     : M=4, N=28
Идентификатор кодека                     : V_MPEG4/ISO/AVC
Продолжительность                        : 1 ч. 39 м.
Битрейт                                  : 5700 Кбит/сек
Ширина                                   : 1920 пикселей
Высота                                   : 1080 пикселей
Соотношение сторон                       : 16:9
Режим частоты кадров                     : Переменный
Частота кадров                           : 50,000 кадров/сек
Частота кадров в оригинале               : 25,000 кадров/сек
Стандарт вещания                         : Component
Цветовое пространство                    : YUV
Субдискретизация насыщенности            : 4:2:0
Битовая глубина                          : 8 бит
Тип развёртки                            : Чересстрочная
Метод сохранения типа развёртки          : Раздельные поля
Порядок развёртки                        : Верхнее поле первое
Бит/(Пиксели*Кадры)                      : 0.055
Размер потока                            : 3,97 Гбайт (91%)
Язык                                     : English
Default                                  : Да
Forced                                   : Нет
Цветовой диапазон                        : Limited
Основные цвета                           : BT.709
Характеристики трансфера                 : BT.709
Коэффициенты матрицы                     : BT.709
Аудио #1
Идентификатор                            : 2
Формат                                   : AC-3
Формат/Информация                        : Audio Coding 3
Расширение режима                        : CM (complete main)
Параметр Endianness формата              : Big
Идентификатор кодека                     : A_AC3
Продолжительность                        : 1 ч. 39 м.
Вид битрейта                             : Постоянный
Битрейт                                  : 384 Кбит/сек
Каналы                                   : 2 канала
Расположение каналов                     : Front: L R
Частота                                  : 48,0 КГц
Частота кадров                           : 31,250 кадров/сек (1536 spf)
Метод сжатия                             : С потерями
Размер потока                            : 274 Мбайт (6%)
Заголовок                                : DUB | Back Board Cinema | DD 2.0
Язык                                     : Russian
Default                                  : Да
Forced                                   : Нет
Аудио #2
Идентификатор                            : 3
Формат                                   : MPEG Audio
Версия формата                           : Version 1
Профиль формата                          : Layer 2
Идентификатор кодека                     : A_MPEG/L2
Идентификатор кодека/Подсказка           : MP2
Продолжительность                        : 1 ч. 39 м.
Вид битрейта                             : Постоянный
Битрейт                                  : 192 Кбит/сек
Каналы                                   : 2 канала
Частота                                  : 48,0 КГц
Частота кадров                           : 41,667 кадра/сек (1152 spf)
Метод сжатия                             : С потерями
Размер потока                            : 137 Мбайт (3%)
Заголовок                                : DUB | Back Board Cinema | DD 2.0
Язык                                     : Russian
Default                                  : Нет
Forced                                   : Нет

Скриншоты

-

_________________
Показать сообщения:    

Текущее время: Сегодня 12:14

Часовой пояс: GMT



Вы не можете начинать темы
Вы не можете отвечать на сообщения
Вы не можете редактировать свои сообщения
Вы не можете удалять свои сообщения
Вы не можете голосовать в опросах
Вы не можете прикреплять файлы к сообщениям
Вы не можете скачивать файлы