Важное объявление!
У Нас Все раздачи мультитрекерные, при нуле пиров в релизах, можете смело вставать на закачку!
 
Автор Сообщение

HUNTER

Стаж:
4 года 4 месяца
Сообщений:
56798

Репутация: 101

[+] [-]
Вне форума [Профиль] [ЛС]

Танцуем эмоционально. Ча-ча-ча. / Dancing Basics with Passion.-

Год выпуска: 2006
Страна: США
Сайт производителя: отсутствуeт
Тематика: Бальные танцы
Тип материала: Обучающее видео-Продолжительность: 01:42:00
Автор: Славик Крикливый и Карина Смирнофф-Язык: Русский - Профессиональный (одноголосый)
Субтитры: отсутствуют-Описание: Международный стиль латиноамериканских танцев.
Фигуры уровня сложности Начинающий, Средний, Продвинутый.
Фигуры международного стиля латиноамериканских танцев танцуют и демонстрируют супер звезды латины Славик и Карина, комментирует Корки Баллас, перевод Александр Иванов.
-Качество: DVDRip
Формат: AVI
Видео кодек: XviD
Аудио кодек: MP3
Видео: XviD; 720x544 (4:3); 29,97 fps; ~ 940-1100 Кбит/с
Аудио: MPEG Layer 3 (MP3), stereo, 44kHz; VBR 192.00 kbps-

Содержание

1. Вступление
2. История Ча-ча-ча
Бронзовый уровень
3. Разминка (бронзовый уровень)
4. Четыре типа действия бедра (бронзовый уровень)
5. Ритм гуапача (бронзовый уровень)
6. Шассе (бронзовый уровень)
7. Основное движение в закрытой позиции (бронзовый уровень)
8. Нью-Йорк (бронзовый уровень)
9. Поворот на месте (бронзовый уровень)
10. Поворот-переключатель (бронзовый уровень)
11. Поворот под рукой (бронзовый уровень)
12. Поворот под рукой с исполнением партнёршей Поворот-переключателя (бронзовый уровень)
13. Плечо к плечу (бронзовый уровень)
14. Рука в руке (бронзовый уровень)
15. Три ча-ча-ча (бронзовый уровень)
16. Боковые шаги (бронзовый уровень)
17. Туда и обратно (бронзовый уровень)
18. Тайм степ (бронзовый уровень)
19. Вариация (бронзовый уровень)
Серебряный уровень
20. Разминка (серебряный уровень)
21. Веер (серебряный уровень)
22. Алемана (серебряный уровень)
23. Хоккейная клюшка (серебряный уровень)
24. Правый волчок (серебряный уровень)
25. Раскрытие вправо (серебряный уровень)
26. Закрытый хип твист (серебряный уровень)
27. Открытый хип твист (серебряный уровень)
28. Левый волчок (серебряный уровень)
29. Раскрытие из левого волчка (серебряный уровень)
30. Аида (серебряный уровень)
31. Спираль (серебряный уровень)
32. Локон (серебряный уровень)
33. Лассо (серебряный уровень)
34. Кросс бейсик (серебряный уровень)
35. Кубинский брейк и дробный кубинский брейк (серебряный уровень)
36. Вариация (серебряный уровень)
Золотой уровень
37. Разминка (золотой уровень)
38. Методы смены ног (золотой уровень)
39. Охота (золотой уровень)
40. Усложнённый хип твист (золотой уровень)
41. Хип твист спираль (золотой уровень)
42. Турецкое полотенце (золотой уровень)
43. Возлюбленная (золотой уровень)
44. Следуй за мной (золотой уровень)
45. Вариация (золотой уровень)

MediaInfo

Код: copyText_writeLink('this.parentNode.parentNode.nextSibling.nextSibling'); General
Complete name : E:\Обучение\Cha-cha\2. История Ча-ча-ча.avi
Format : AVI
Format/Info : Audio Video Interleave
File size : 7.19 MiB
Duration : 51s 552ms
Overall bit rate : 1 170 Kbps
Writing application : VirtualDubMod 1.5.4.1 (build 2178/release)
Writing library : VirtualDubMod build 2178/release
Video
ID : 0
Format : MPEG-4 Visual
Format profile : Advanced Simple@L5
Format settings, BVOP : 1
Format settings, QPel : No
Format settings, GMC : No warppoints
Format settings, Matrix : Custom
Codec ID : XVID
Codec ID/Hint : XviD
Duration : 51s 552ms
Bit rate : 969 Kbps
Width : 720 pixels
Height : 544 pixels
Display aspect ratio : 4:3
Frame rate : 29.970 fps
Color space : YUV
Chroma subsampling : 4:2:0
Bit depth : 8 bits
Scan type : Progressive
Compression mode : Lossy
Bits/(Pixel*Frame) : 0.083
Stream size : 5.95 MiB (83%)
Writing library : XviD 1.2.1 (UTC 2008-12-04)
Audio
ID : 1
Format : AC-3
Format/Info : Audio Coding 3
Mode extension : CM (complete main)
Format settings, Endianness : Big
Codec ID : 2000
Duration : 51s 434ms
Bit rate mode : Constant
Bit rate : 192 Kbps
Channel(s) : 2 channels
Channel positions : Front: L R
Sampling rate : 48.0 KHz
Bit depth : 16 bits
Compression mode : Lossy
Delay relative to video : 11ms
Stream size : 1.18 MiB (16%)
Alignment : Split accross interleaves
Interleave, duration : 96 ms (2.88 video frames)
Interleave, preload duration : 96 ms
- -

_________________
Показать сообщения:    

Текущее время: Сегодня 21:40

Часовой пояс: GMT



Вы не можете начинать темы
Вы не можете отвечать на сообщения
Вы не можете редактировать свои сообщения
Вы не можете удалять свои сообщения
Вы не можете голосовать в опросах
Вы не можете прикреплять файлы к сообщениям
Вы не можете скачивать файлы