Важное объявление!
У Нас Все раздачи мультитрекерные, при нуле пиров в релизах, можете смело вставать на закачку!
 
Автор Сообщение

HUNTER

Стаж:
4 года 4 месяца
Сообщений:
56719

Репутация: 101

[+] [-]
Вне форума [Профиль] [ЛС]


Танец живота “Жемчужина Клеопатры-Год выпуска: 2006
Страна: Россия
Сайт производителя: отсутствуeт
Тематика: аэробика
Тип материала: Обучающее видео
Продолжительность: 00:50:31
Автор: Наталия Правдина
Язык: Русский
Субтитры: отсутствуют-Описание: Этот программа, предназначена для тех, кто желает привнести в свою жизнь немного восточного колорита. Уникальный по своей красоте и свойствам танец, поможет Вам обрести уверенность и осознать свое единение с Природой. Вы обретете веру в свою неповторимость и индивидуальность. Во всей полноте ощутите внутреннюю свободу и раскрепостите свои желания. С помощью простых и доступных каждому движений, Вы сможете открыть в себе ту сексуальность, которая, возможно была скрыта в самых потаенных уголках вашей души. Этот танец создает ощущение медитации, уносит Вас в мир чувственности, и сексуальных удовольствий. Под его чарующую и завораживающую музыку, в Вас будет открываться желание быть любимой и любить самой. Кроме того, Вы непременно ощутите его особое свойство влиять на весь организм в целом. Ведь организм женщины – это особый тонкий инструмент. Как Вы его настроите, так он и будет функционировать.-Качество: DVDRip
Формат: AVI
Видео кодек: XviD
Аудио кодек: AC3
Видео: 640x470 (1.36:1), 25 fps, XviD MPEG-4 ~1726 kbps avg, 0.23 bit/pixel
Аудио: 48 kHz, AC3 Dolby Digital, 2/0 (L,R) ch, ~192 kbps-

Содержание

Содержание:
1. Вступление
2. Выполняем наклоны
3. Разучиваем скрутки и прогибы
4. Выполняем отведение бедра
5. Связываем элементы в мини-композицию
6. Разучиваем качание бедром
7. Разучиваем “бочку” и круги бедром
8. Мини-композиция
9. Разучиваем прогибы и тряску
10. Выполняем боковую и переднюю качалку
11. Добавляем скрутки
12. Мини-композиция
13. Начинаем разучивать танец
14. Танцуем вместе

MediaInfo

Код: copyText_writeLink('this.parentNode.parentNode.nextSibling.nextSibling'); Общее
Полное имя : D:\обуч\gemchugina_cleopatry.avi
Формат : AVI
Формат/Информация : Audio Video Interleave
Размер файла : 697 Мбайт
Продолжительность : 50 м.
Общий поток : 1928 Кбит/сек
Программа кодирования : VirtualDubMod 1.5.10.2 (build 2540/release)
Библиотека кодирования : VirtualDubMod build 2540/release
Видео
Идентификатор : 0
Формат : MPEG-4 Visual
Профиль формата : Advanced Simple@L5
Параметр BVOP формата : 2
Параметр QPel формата : Нет
Параметр GMC формата : Без точки перехода
Параметр матрицы формата : Default (H.263)
Режим смешивания : Сжатый битовый поток
Идентификатор кодека : XVID
Идентификатор кодека/Подсказка : XviD
Продолжительность : 50 м.
Битрейт : 1727 Кбит/сек
Ширина : 640 пикселей
Высота : 470 пикселей
Соотношение сторон : 4:3
Частота кадров : 25,000 кадров/сек
Цветовое пространство : YUV
Субдискретизация насыщенности : 4:2:0
Битовая глубина : 8 бит
Тип развёртки : Прогрессивная
Метод сжатия : С потерями
Бит/(Пиксели*Кадры) : 0.230
Размер потока : 624 Мбайт (90%)
Библиотека кодирования : XviD 1.2.1 (UTC 2008-12-04)
Аудио
Идентификатор : 1
Формат : AC-3
Формат/Информация : Audio Coding 3
Расширение режима : CM (complete main)
Параметр Endianness формата : Big
Идентификатор кодека : 2000
Продолжительность : 50 м.
Вид битрейта : Постоянный
Битрейт : 192 Кбит/сек
Каналы : 2 канала
Расположение каналов : Front: L R
Частота : 48,0 КГц
Битовая глубина : 16 бит
Метод сжатия : С потерями
Размер потока : 69,4 Мбайт (10%)
Выравнивание : Разделение по промежуткам
Продолжительность промежутка : 40 мс. (1,00 видеокадр)
Время предзагрузки промежутка : 500 мс.

Скриншоты

-

_________________
Показать сообщения:    

Текущее время: Сегодня 02:23

Часовой пояс: GMT



Вы не можете начинать темы
Вы не можете отвечать на сообщения
Вы не можете редактировать свои сообщения
Вы не можете удалять свои сообщения
Вы не можете голосовать в опросах
Вы не можете прикреплять файлы к сообщениям
Вы не можете скачивать файлы