Важное объявление!
У Нас Все раздачи мультитрекерные, при нуле пиров в релизах, можете смело вставать на закачку!
 
Автор Сообщение

HUNTER

Стаж:
4 года 4 месяца
Сообщений:
56734

Репутация: 101

[+] [-]
Вне форума [Профиль] [ЛС]

Тандерберды вперед! / Предвестники бури, вперед! / Thunderbirds Are GO-
Страна: Великобритания
Жанр: фантастика, боевик, анимация
Продолжительность: 01:29:24
Год выпуска: 1966
Перевод: Профессиональный (двухголосый закадровый) НТВ+ /Людмила Шувалова, Михаил Тихонов/
Русские субтитры: нет-Режиссёр: Дэвид Лэйн / David Lane
Роли озвучивали: Сильвия Андерсон, Рэй Баррет, Александр Давион, Питер Динели, Кристин Финн, Дэвид Грэм, Пол Максвелл, Нил МакКаллум, Боб Монкхаус...- | Релиз: -Описание: Действие фантастического фильма происходит в конце XXI века. Первый пилотируемый полет на Марс заканчивается крушением. Однако экипаж уцелел. Дальнейшее расследование приходит к выводу, что катастрофа была спланирована. Чтобы в дальнейшем подобного не произошло, к работе привлекают команду Тандербердов. Их задача - охранять от неприятностей повторный запуск марсианской миссии.-Семпл: http://sendfile.su/1137415-Качество: HDTV 1080i (MGM HD)
Формат: TS
Видео: 1920x1080i (16:9), 25.000 fps, AVC, ~7526 Kbps, 0.145 bits/pixel
Аудио 1: Russian, 48.0 KHz, MPEG-1 Audio layer 2, 2 ch, 192 Kbps
Аудио 2: English, 48.0 KHz, MPEG-1 Audio layer 2, 2 ch, 192 Kbps
Субтитры: нет

Подробные технические данные

GeneralID : 1 (0x1)Complete name : Thunderbirds Are GO 1966 MGMHD 1080i.rus.eng.tsFormat : MPEG-TSFile size : 5.20 GiBDuration : 1h 29mnOverall bit rate mode : VariableOverall bit rate : 8 325 KbpsMaximum Overall bit rate : 35.5 Mbps
VideoID : 4113 (0x1011)Menu ID : 1 (0x1)Format : AVCFormat/Info : Advanced Video CodecFormat profile : Main@L4Format settings, CABAC : YesFormat settings, ReFrames : 4 framesCodec ID : 27Duration : 1h 29mnBit rate : 7 526 KbpsWidth : 1 920 pixelsHeight : 1 080 pixelsDisplay aspect ratio : 16:9Frame rate : 25.000 fpsStandard : ComponentColor space : YUVChroma subsampling : 4:2:0Bit depth : 8 bitsScan type : InterlacedScan order : Top Field FirstBits/(Pixel*Frame) : 0.145Stream size : 4.70 GiB (90%)Color range : LimitedColor primaries : BT.709Transfer characteristics : BT.709Matrix coefficients : BT.709
Audio #1ID : 4352 (0x1100)Menu ID : 1 (0x1)Format : MPEG AudioFormat version : Version 1Format profile : Layer 2Codec ID : 4Duration : 1h 29mnBit rate mode : ConstantBit rate : 192 KbpsChannel(s) : 2 channelsSampling rate : 48.0 KHzCompression mode : LossyStream size : 123 MiB (2%)Language : Russian
Audio #2ID : 4353 (0x1101)Menu ID : 1 (0x1)Format : MPEG AudioFormat version : Version 1Format profile : Layer 2Codec ID : 4Duration : 1h 29mnBit rate mode : ConstantBit rate : 192 KbpsChannel(s) : 2 channelsSampling rate : 48.0 KHzCompression mode : LossyStream size : 123 MiB (2%)Language : English

Скриншоты


_________________
Показать сообщения:    

Текущее время: Сегодня 15:07

Часовой пояс: GMT



Вы не можете начинать темы
Вы не можете отвечать на сообщения
Вы не можете редактировать свои сообщения
Вы не можете удалять свои сообщения
Вы не можете голосовать в опросах
Вы не можете прикреплять файлы к сообщениям
Вы не можете скачивать файлы