Важное объявление!
У Нас Все раздачи мультитрекерные, при нуле пиров в релизах, можете смело вставать на закачку!
 
Автор Сообщение

HUNTER

Стаж:
4 года 4 месяца
Сообщений:
56749

Репутация: 101

[+] [-]
Вне форума [Профиль] [ЛС]

Тандерберды вперед! / Предвестники бури, вперед! / Thunderbirds Are GO
Страна: Великобритания
Жанр: фантастика, боевик, анимация
Год выпуска: 1966
Продолжительность: 01:29:23
Перевод: Профессиональный (двухголосый закадровый) НТВ+
Cубтитры: нет
Режиссер: Дэвид Лэйн / David Lane
В ролях: Сильвия Андерсон
Рэй Баррет
Александр Давион
Питер Динели
Кристин Финн
Дэвид Грэм
Пол Максвелл
Нил МакКаллум
Боб Монкхаус
Описание: Действие фантастического фильма происходит в конце XXI века. Первый пилотируемый полет на Марс заканчивается крушением. Однако экипаж уцелел. Дальнейшее расследование приходит к выводу, что катастрофа была спланирована. Чтобы в дальнейшем подобного не произошло, к работе привлекают команду Тандербердов. Их задача - охранять от неприятностей повторный запуск марсианской миссии.
Сэмпл: https://yadi.sk/i/Uyl2DHVYhNScU
Доп. информация: За предоставленный рип благодарим Ledy_X
"Спасибы" просьба ПИСАТЬ в теме, тем самым вы продлеваете жизнь раздаче.
Релиз
Качество видео: HDTVRip [Исходник 1080i]
Формат видео: AVI
Видео: 720x400 (1.80:1), 25 fps, XviD build 50 ~1988 kbps avg, 0.28 bit/pixel
Аудио: 48 kHz, AC3 Dolby Digital, 2/0 (L,R) ch, ~192 kbps

MediaInfo

Тандерберды вперед! - Thunderbirds Are GO [Rip by Ledy_X].avi
Format : AVI
Format/Info : Audio Video Interleave
File size : 1.37 GiB
Duration : 1h 29mn
Overall bit rate : 2 191 Kbps
Movie name : Тандерберды вперед! - Thunderbirds Are GO [Rip by Ledy_X]
Director : Rip by Ledy_X
Writing application : VirtualDubMod 1.5.10.3 | www.virtualdub-fr.org || (build 2550/release)
Copyright : Edich2
Comment : RuTracker.org
Video
ID : 0
Format : MPEG-4 Visual
Format profile : Advanced Simple@L5
Format settings, BVOP : 1
Format settings, QPel : No
Format settings, GMC : No warppoints
Format settings, Matrix : Default (MPEG)
Codec ID : XVID
Codec ID/Hint : XviD
Duration : 1h 29mn
Bit rate : 1 989 Kbps
Width : 720 pixels
Height : 400 pixels
Display aspect ratio : 16:9
Frame rate : 25.000 fps
Color space : YUV
Chroma subsampling : 4:2:0
Bit depth : 8 bits
Scan type : Progressive
Compression mode : Lossy
Bits/(Pixel*Frame) : 0.276
Stream size : 1.24 GiB (91%)
Writing library : XviD 1.2.1 (UTC 2008-12-04)
Audio
ID : 1
Format : AC-3
Format/Info : Audio Coding 3
Mode extension : CM (complete main)
Format settings, Endianness : Big
Codec ID : 2000
Duration : 1h 29mn
Bit rate mode : Constant
Bit rate : 192 Kbps
Channel(s) : 2 channels
Channel positions : Front: L R
Sampling rate : 48.0 KHz
Bit depth : 16 bits
Compression mode : Lossy
Stream size : 123 MiB (9%)
Alignment : Split accross interleaves
Interleave, duration : 40 ms (1.00 video frame)
Interleave, preload duration : 500 ms

Скриншоты



_________________
Показать сообщения:    

Текущее время: Сегодня 20:38

Часовой пояс: GMT



Вы не можете начинать темы
Вы не можете отвечать на сообщения
Вы не можете редактировать свои сообщения
Вы не можете удалять свои сообщения
Вы не можете голосовать в опросах
Вы не можете прикреплять файлы к сообщениям
Вы не можете скачивать файлы