Важное объявление!
У Нас Все раздачи мультитрекерные, при нуле пиров в релизах, можете смело вставать на закачку!
 
Автор Сообщение

HUNTER

Стаж:
4 года 4 месяца
Сообщений:
56772

Репутация: 101

[+] [-]
Вне форума [Профиль] [ЛС]

Тайны тёмной энергии / The Mysteries of Dark Energy-
Год выпуска: 2015
Страна: Великобритания, США
Жанр: Документальный
Канал:
Продолжительность:: 00:48:42
Перевод: Профессиональный (двухголосый закадровый, студия Видеофильм ТВ)
Производство:: BBC, Science Channel
Русские субтитры:: нет
Режиссер:: Марк Радице / Mark Radice
Описание: Наша Вселенная разваливается!.. Что-то заставляет галактики все быстрее и быстрее разлетаться в стороны. Как только физики совершили это страшное открытие - они сразу начали искать объяснение. В ожидании ответа ученые решили называть неведомую силу тёмной энергией. Пока не открыли тёмную энергию, мы могли полностью полагаться на теорию относительности Эйнштейна. Но теперь эта теория не может объяснить существование тёмной энергии. Впрочем, нет еще вообще никакой теории, объясняющей её существование. Это тёмное пятно современной науки - и нам нужен новый прорыв в теории и, без всякого лукавства, новый Эйнштейн...

Тип релиза: [url=viewtopic.php?t=5288258]HDTV[/url]Rip [Neon_project]
Контейнер: AVI
Видео: 720x400 (1.80:1), 25 fps, XviD build 50 ~1804 kbps avg, 0.25 bit/pixel
Аудио: 48 kHz, AC3 Dolby Digital, 2/0 (L,R) ch, ~192 kbps
Дополнительная информация: исходник - & ; сведение русской и английской дорожек - nyctalus

MediaInfo

ОбщееПолное имя : \The.Mysteries.of.Dark.Energy.2015.HDTVRip.Rus.aviФормат : AVIФормат/Информация : Audio Video InterleaveРазмер файла : 699 МбайтПродолжительность : 48 м.Общий поток : 2006 Кбит/секНазвание фильма : Тайны тёмной энергии / The Mysteries of Dark EnergyЖанр : DocumentaryПрограмма кодирования : VirtualDubMod 1.5.10.3 | www.virtualdub-fr.org || (build 2550/release)Примечание : Neon_project
ВидеоИдентификатор : 0Формат : MPEG-4 VisualПрофиль формата : Advanced Simple@L5Параметр BVOP формата : 1Параметр QPel формата : НетПараметр GMC формата : Без точки переходаПараметр матрицы формата : ВыборочнаяИдентификатор кодека : XVIDИдентификатор кодека/Подсказка : XviDПродолжительность : 48 м.Битрейт : 1804 Кбит/секШирина : 720 пикселейВысота : 400 пикселейСоотношение сторон : 16:9Частота кадров : 25,000 кадров/секЦветовое пространство : YUVСубдискретизация насыщенности : 4:2:0Битовая глубина : 8 битТип развёртки : ПрогрессивнаяМетод сжатия : С потерямиБит/(Пиксели*Кадры) : 0.251Размер потока : 628 Мбайт (90%)Библиотека кодирования : XviD 1.2.1 (UTC 2008-12-04)
АудиоИдентификатор : 1Формат : AC-3Формат/Информация : Audio Coding 3Расширение режима : CM (complete main)Параметр Endianness формата : BigИдентификатор кодека : 2000Продолжительность : 48 м.Вид битрейта : ПостоянныйБитрейт : 192 Кбит/секКаналы : 2 каналаРасположение каналов : Front: L RЧастота : 48,0 КГцБитовая глубина : 16 битМетод сжатия : С потерямиРазмер потока : 66,9 Мбайт (10%)Выравнивание : Разделение по промежуткамПродолжительность промежутка : 40 мс. (1,00 видеокадр)Время предзагрузки промежутка : 500 мс.

Скриншоты



_________________
Показать сообщения:    

Текущее время: Сегодня 17:23

Часовой пояс: GMT



Вы не можете начинать темы
Вы не можете отвечать на сообщения
Вы не можете редактировать свои сообщения
Вы не можете удалять свои сообщения
Вы не можете голосовать в опросах
Вы не можете прикреплять файлы к сообщениям
Вы не можете скачивать файлы