Важное объявление!
У Нас Все раздачи мультитрекерные, при нуле пиров в релизах, можете смело вставать на закачку!
 
Автор Сообщение

HUNTER

Стаж:
4 года 4 месяца
Сообщений:
56853

Репутация: 101

[+] [-]
Вне форума [Профиль] [ЛС]

Тайны мозга. Патология / ВВС: The Brain: A Secret History
Год выпуска: 2011
Страна: Великобритания ВВС
Жанр: Документальный
Продолжительность: 00:52:13
Перевод: Профессиональный (одноголосый)
Описание: К чему приводят эксперименты над мозгом. Какие последствия могут возникнуть после операции - узнаете из документального фильма «Тайны мозга: Патологии»! Смотрите только на канале «Наука 2.0» сенсационный фильм Майкла Мозли!
Качество: DVB
Формат: MPEG
Видео кодек: MPEG2
Аудио кодек: MPEG1 Layer 2
Видео: MPEG2 Video 720x576 (4:3) 25.00fps ~2 500 Kbps
Аудио: MPEG Audio 48000Hz 2 channels 192 Кбит/сек

MediaInfo

H:\666-mpeg\Тайны мозга. Патология_DVB by kuzmichm2196 .mpg
General
Complete name : H:\666-mpeg\Тайны мозга. Патология_DVB by kuzmichm2196 .mpg
Format : MPEG-PS
File size : 1.02 GiB
Duration : 52mn 13s
Overall bit rate : 2 787 Kbps
Writing library : (c) 1998-2008 Womble Multimedia, Inc. / MPEG Video Wizard (08/2008) / Aug 25 2008
Video #224
ID : 224 (0xE0)
Format : MPEG Video
Format version : Version 2
Format profile : Main@Main
Format settings, BVOP : Yes
Format settings, Matrix : Custom
Format settings, GOP : M=2, N=26
Duration : 52mn 13s
Bit rate mode : Variable
Bit rate : 2 539 Kbps
Nominal bit rate : 15.0 Mbps
Width : 720 pixels
Height : 576 pixels
Display aspect ratio : 4:3
Frame rate : 25.000 fps
Standard : PAL
Color space : YUV
Chroma subsampling : 4:2:0
Bit depth : 8 bits
Scan type : Interlaced
Scan order : Top Field First
Compression mode : Lossy
Bits/(Pixel*Frame) : 0.245
Stream size : 948 MiB (91%)
Writing library : (c) 1998-2008 Womble Multimedia, Inc. / MPEG Video Wizard (08/2008) / Aug 25 2008
Audio #192
ID : 192 (0xC0)
Format : MPEG Audio
Format version : Version 1
Format profile : Layer 2
Duration : 52mn 13s
Bit rate mode : Constant
Bit rate : 192 Kbps
Channel(s) : 2 channels
Sampling rate : 48.0 KHz
Compression mode : Lossy
Delay relative to video : -80ms
Stream size : 71.7 MiB (7%)

Скриншоты


_________________
Показать сообщения:    

Текущее время: Сегодня 15:08

Часовой пояс: GMT



Вы не можете начинать темы
Вы не можете отвечать на сообщения
Вы не можете редактировать свои сообщения
Вы не можете удалять свои сообщения
Вы не можете голосовать в опросах
Вы не можете прикреплять файлы к сообщениям
Вы не можете скачивать файлы
Наши партнеры: интернет магазин Ивановского трикотажа textilla.ru