Важное объявление!
У Нас Все раздачи мультитрекерные, при нуле пиров в релизах, можете смело вставать на закачку!
 
Автор Сообщение

HUNTER

Стаж:
4 года 4 месяца
Сообщений:
56734

Репутация: 101

[+] [-]
Вне форума [Профиль] [ЛС]

Тайны Вселенной / Horizon. Here be monsters
Дата/Год выпуска: 01.03.1993
Страна: Великобритания
Жанр: Документальный
Продолжительность: 00:48:59
Перевод: Профессиональный (многоголосый закадровый)
Описание: Вселенная безгранична. Безграничны и тайны, которые она хранит. Сегодня, когда уровень космической техники беспрестанно расширяет границы познания, стало возможным изучение не только ближайших к Земле планет и небесных тел, но и исследование таких загадочных явлений, как черные дыры, расширение Вселенной, возможность столкновения с другими Галактиками.
Режиссёр: Алек Нисбетт / Alec Nisbett
Сэмпл: http://sendfile.su/1124358
качество: VHSRip
формат: AVI
Видео: DivX 1302 Кбит/с 720x544 25 fps
Аудио: MP3 44.1 khz 1 ch 96 Кбит/с

MediaInfo

GeneralComplete name : C:\Documents and Settings\Администратор\Мои документы\Horizon. Here be monsters.aviFormat : AVIFormat/Info : Audio Video InterleaveFile size : 493 MiBDuration : 48mn 58sOverall bit rate : 1 408 KbpsWriting application : VirtualDubMod 1.5.10.2 (build 2540/release)Writing library : VirtualDubMod build 2540/release
VideoID : 0Format : MPEG-4 VisualFormat settings, BVOP : 1Format settings, QPel : NoFormat settings, GMC : No warppointsFormat settings, Matrix : Default (H.263)Muxing mode : Packed bitstreamCodec ID : DX50Codec ID/Hint : DivX 5Duration : 48mn 58sBit rate : 1 302 KbpsWidth : 720 pixelsHeight : 544 pixelsDisplay aspect ratio : 4:3Frame rate : 25.000 fpsColor space : YUVChroma subsampling : 4:2:0Bit depth : 8 bitsScan type : ProgressiveCompression mode : LossyBits/(Pixel*Frame) : 0.133Stream size : 456 MiB (92%)Writing library : DivX 6.7.0 (UTC 2007-09-20)
AudioID : 1Format : MPEG AudioFormat version : Version 1Format profile : Layer 3Codec ID : 55Codec ID/Hint : MP3Duration : 48mn 58sBit rate mode : ConstantBit rate : 96.0 KbpsChannel(s) : 1 channelSampling rate : 44.1 KHzCompression mode : LossyStream size : 33.6 MiB (7%)Alignment : Split accross interleavesInterleave, duration : 40 ms (1.00 video frame)Interleave, preload duration : 500 msWriting library : LAME3.99rEncoding settings : -m m -V 4 -q 5 -lowpass 20.5 -b 96

Скриншоты


_________________
Показать сообщения:    

Текущее время: Сегодня 09:51

Часовой пояс: GMT



Вы не можете начинать темы
Вы не можете отвечать на сообщения
Вы не можете редактировать свои сообщения
Вы не можете удалять свои сообщения
Вы не можете голосовать в опросах
Вы не можете прикреплять файлы к сообщениям
Вы не можете скачивать файлы