Важное объявление!
У Нас Все раздачи мультитрекерные, при нуле пиров в релизах, можете смело вставать на закачку!
 
Автор Сообщение

HUNTER

Стаж:
4 года 4 месяца
Сообщений:
56719

Репутация: 101

[+] [-]
Вне форума [Профиль] [ЛС]

Тайны Вселенной / Secrets Of The Universe
Дата/Год выпуска: 2011-2013
Страна: США
Жанр: Документальный, познавательный, космос
Продолжительность: 8 х ~ 00:25:01
Перевод: Профессиональный (дублированный)
Русские субтитры: нет
Оригинальная аудиодорожка: нет
Режиссер: Томас Лукас / Thomas Lucas , Лаура Верклан / Laura Verklan, Колин Кэмпбэлл / Colin Campbell, Тони Лэнг / Tony Lang
Описание: В потрясающем документальном сериале с помощью современной компьютерной графики и, основываясь на передовых исследованиях в области космоса, удалось воссоздать то, что происходит на других планетах, в других галактиках, вообразить какие формы жизни могли бы развиться в других атмосферах. Вы сможете увидеть космические бедствия, параллельные вселенные, скорость света и узнать многое другое о тайнах космоса.
Семпл:http://sendfile.su/1088410
качество: SATRip
формат: AVI
Видео: Xvid 720x400 25fps 1 700 Kbps
Аудио: AC3 48000Hz stereo 192kbps

Список выпусков/серий

01. Неоткрытые миры / Undiscovered Worlds
02. Оазис в космосе / Oasis in Space
03. Обратная сторона бесконечности. Чёрные дыры / The Other Side Of Infinity. Black Holes
04. Живая планета / Dinanic Earth
05. Супервулканы / Supervolcanoes
06. Загадочное рождение луны / The Mysterious Birth OF The Moon
07. Смерть звезды / Death Of A Star
08. В поисках края вселенной / Search For The Edge Of The Universe

MediaInfo

H:\Документальные фильмы\Тайны вселенной.2011-2013.XviD.SATRip\05. Супервулканы.avi General Complete name : H:\Документальные фильмы\Тайны вселенной.2011-2013.XviD.SATRip\05. Супервулканы.avi Format : AVI Format/Info : Audio Video Interleave File size : 335 MiB Duration : 24mn 37s Overall bit rate : 1 902 Kbps Director : SATRip by Thunder Writing application : VirtualDubMod 1.5.10.3 | www.virtualdub-fr.org || (build 2550/release) Original source form/Name : Documentary Video #0 ID : 0 Format : MPEG-4 Visual Format profile : Advanced Simple@L5 Format settings, BVOP : Yes Format settings, QPel : No Format settings, GMC : No warppoints Format settings, Matrix : Default (H.263) Codec ID : XVID Codec ID/Hint : XviD Duration : 24mn 37s Bit rate : 1 700 Kbps Width : 720 pixels Height : 400 pixels Display aspect ratio : 16:9 Frame rate : 25.000 fps Color space : YUV Chroma subsampling : 4:2:0 Bit depth : 8 bits Scan type : Progressive Bits/(Pixel*Frame) : 0.236 Stream size : 299 MiB (89%) Writing library : XviD 1.2.1 (UTC 2008-12-04) Audio #1 ID : 1 Format : AC-3 Format/Info : Audio Coding 3 Mode extension : CM (complete main) Codec ID : 2000 Duration : 24mn 37s Bit rate mode : Constant Bit rate : 192 Kbps Channel(s) : 2 channels Channel positions : Front: L R Sampling rate : 48.0 KHz Bit depth : 16 bits Stream size : 33.8 MiB (10%) Alignment : Split accross interleaves Interleave, duration : 40 ms (1.00 video frame) Interleave, preload duration : 500 ms

Скриншоты



_________________
Показать сообщения:    

Текущее время: Сегодня 01:57

Часовой пояс: GMT



Вы не можете начинать темы
Вы не можете отвечать на сообщения
Вы не можете редактировать свои сообщения
Вы не можете удалять свои сообщения
Вы не можете голосовать в опросах
Вы не можете прикреплять файлы к сообщениям
Вы не можете скачивать файлы