Важное объявление!
У Нас Все раздачи мультитрекерные, при нуле пиров в релизах, можете смело вставать на закачку!
 
Автор Сообщение

HUNTER

Стаж:
4 года 4 месяца
Сообщений:
56798

Репутация: 101

[+] [-]
Вне форума [Профиль] [ЛС]

Тайное вторжение / The Secret Invasion
Страна: США
Жанр: драма
Год выпуска: 1964
Продолжительность: 01:37:59
Перевод: Профессиональный (двухголосый закадровый)- НТВ+
Cубтитры: английские
Оригинальная аудиодорожка: английский
Режиссер: Роджер Корман / Roger Corman
В ролях: Стюарт Грэйнджер / Stewart Granger... Maj. Richard Mace
Раф Валлоне / Raf Vallone... Roberto Rocca - Organizer
Микки Руни / Mickey Rooney... Terence Scanlon - Demolition
Эдд Бирнс / Edd Byrnes... Simon Fell - Forger
Генри Сильва / Henry Silva... John Durrell - Assassin
Спела Розин / Spela Rozin... Mila
Уильям Кэмпбелл / William Campbell... Jean Saval
Хелмо Киндерманн / Helmo Kindermann... German Fortress Commandant
Описание: Нацисты заключают в тюрьму итальянского генерала, который планировал перебежать на сторону врага и перевести свою армию к Союзникам. Штаб Союзников посылает небольшую группу солдат, чтобы освободить генерала и помочь ему осуществить свои планы…
Доп. информация: К BDRip 720p, скаченному с забугорного трекера, добавлены русская звуковая дорожка с [url=viewtopic.php?t=2182771]этой[/url] раздачи, спасибо StudioRAK.
Сэмпл: http://multi-up.com/1114049
Тип релиза: BDRip 720p
Контейнер: MKV
Видео: AVC, 10360 Кбит/сек, 1280 x 544, 23.976 fps
Аудио 1: Russian (Dolby AC3, 2 ch), 48 kHz, 192 kbps
Аудио 2: English (Dolby AC3, 2 ch), 48 kHz, 640 kbps
Формат субтитров: UTF-8

MediaInfo

Matroska
Версия формата : Version 2
Размер файла : 7,96 Гбайт
Продолжительность : 1 ч. 37 м.
Общий поток : 11,6 Мбит/сек
Название фильма : The.Secret.Invasion.1964.720p.BluRay.DD2.0.x264-OmertaHD
Дата кодирования : UTC 2016-08-15 16:19:46
Программа кодирования : mkvmerge v7.5.0 ('Glass Culture') 32bit built on Jan 4 2015 16:37:25
Библиотека кодирования : libebml v1.3.1 + libmatroska v1.4.2
DURATION : 01:37:59.040000000
NUMBER_OF_FRAMES : 183720
NUMBER_OF_BYTES : 141096960
_STATISTICS_WRITING_APP : mkvmerge v7.5.0 ('Glass Culture') 32bit built on Jan 4 2015 16:37:25
_STATISTICS_WRITING_DATE_UTC : 2016-08-15 16:19:46
_STATISTICS_TAGS : BPS DURATION NUMBER_OF_FRAMES NUMBER_OF_BYTES
Видео
Идентификатор : 1
Формат : AVC
Формат/Информация : Advanced Video Codec
Профиль формата : High@L4.1
Параметр CABAC формата : Да
Параметр ReFrames формата : 9 кадров
Идентификатор кодека : V_MPEG4/ISO/AVC
Продолжительность : 1 ч. 37 м.
Битрейт : 10,6 Мбит/сек
Ширина : 1280 пикселей
Высота : 544 пикселя
Соотношение сторон : 2,35:1
Режим частоты кадров : Постоянный
Частота кадров : 23,976 кадра/сек
Цветовое пространство : YUV
Субдискретизация насыщенности : 4:2:0
Битовая глубина : 8 бит
Тип развёртки : Прогрессивная
Бит/(Пиксели*Кадры) : 0.633
Размер потока : 7,23 Гбайт (91%)
Библиотека кодирования : x264 core 148 r2705kMod 3f5ed56
Настройки программы : cabac=1 / ref=9 / deblock=1:-3:-3 / analyse=0x3:0x133 / me=umh / subme=10 / psy=1 / fade_compensate=0.00 / psy_rd=1.12:0.00 / mixed_ref=1 / me_range=32 / chroma_me=1 / trellis=2 / 8x8dct=1 / cqm=0 / deadzone=21,11 / fast_pskip=1 / chroma_qp_offset=-2 / threads=17 / lookahead_threads=4 / sliced_threads=0 / nr=0 / decimate=1 / interlaced=0 / bluray_compat=0 / constrained_intra=0 / fgo=0 / bframes=10 / b_pyramid=2 / b_adapt=2 / b_bias=0 / direct=3 / weightb=1 / open_gop=0 / weightp=2 / keyint=250 / keyint_min=23 / scenecut=40 / intra_refresh=0 / rc=crf / mbtree=0 / crf=15.7000 / qcomp=0.52 / qpmin=0 / qpmax=69 / qpstep=4 / ip_ratio=1.28 / pb_ratio=1.20 / aq=3:0.67
Язык : Russian
Default : Да
Forced : Нет
DURATION : 01:37:58.206000000
NUMBER_OF_FRAMES : 140936
NUMBER_OF_BYTES : 7930009096
_STATISTICS_WRITING_APP : mkvmerge v7.5.0 ('Glass Culture') 32bit built on Jan 4 2015 16:37:25
_STATISTICS_WRITING_DATE_UTC : 2016-08-15 16:19:46
_STATISTICS_TAGS : BPS DURATION NUMBER_OF_FRAMES NUMBER_OF_BYTES
Аудио #1
Идентификатор : 2
Формат : AC-3
Формат/Информация : Audio Coding 3
Расширение режима : CM (complete main)
Параметр Endianness формата : Big
Идентификатор кодека : A_AC3
Продолжительность : 1 ч. 37 м.
Вид битрейта : Постоянный
Битрейт : 192 Кбит/сек
Каналы : 2 канала
Расположение каналов : Front: L R
Частота : 48,0 КГц
Битовая глубина : 16 бит
Метод сжатия : С потерями
Размер потока : 135 Мбайт (2%)
Заголовок : Russian
Язык : Russian
Default : Да
Forced : Нет
Аудио #2
Идентификатор : 3
Формат : AC-3
Формат/Информация : Audio Coding 3
Расширение режима : CM (complete main)
Параметр Endianness формата : Big
Идентификатор кодека : A_AC3
Продолжительность : 1 ч. 37 м.
Вид битрейта : Постоянный
Битрейт : 640 Кбит/сек
Каналы : 2 канала
Расположение каналов : Front: L R
Частота : 48,0 КГц
Битовая глубина : 16 бит
Метод сжатия : С потерями
Размер потока : 449 Мбайт (6%)
Язык : English
Default : Нет
Forced : Нет
Текст
Идентификатор : 4
Формат : UTF-8
Идентификатор кодека : S_TEXT/UTF8
Идентификатор кодека/Информация : UTF-8 Plain Text
Язык : English
Default : Нет
Forced : Нет
Меню
00:00:00.000 : en:00:00:00.000
00:10:32.340 : en:00:10:32.340
00:20:59.091 : en:00:20:59.091
00:34:47.544 : en:00:34:47.544
00:53:10.562 : en:00:53:10.562
01:05:27.882 : en:01:05:27.882
01:14:20.164 : en:01:14:20.164
01:25:11.064 : en:01:25:11.064

Скриншоты


_________________
Показать сообщения:    

Текущее время: Сегодня 00:41

Часовой пояс: GMT



Вы не можете начинать темы
Вы не можете отвечать на сообщения
Вы не можете редактировать свои сообщения
Вы не можете удалять свои сообщения
Вы не можете голосовать в опросах
Вы не можете прикреплять файлы к сообщениям
Вы не можете скачивать файлы