Важное объявление!
У Нас Все раздачи мультитрекерные, при нуле пиров в релизах, можете смело вставать на закачку!
 
Автор Сообщение

HUNTER

Стаж:
4 года 4 месяца
Сообщений:
56749

Репутация: 101

[+] [-]
Вне форума [Профиль] [ЛС]

-Тайна Рагнарока / Ragnarok -
Год выпуска: 2013
Страна: Норвегия / Fantefilm, Film i V�st, Ghost VFX
Жанр:Приключения, фэнтези, боевик
Продолжительность:01:41:07
Перевод:Любительское (двухголосое) [DeadSno & den904]
Cубтитры:Русские,английские- Режиссер:Миккель Бренне Саннемусе
В ролях: Пол Сверре Хаген, Николай Клеве Брок, Cофия Хелин, Мария Аннетт Таннерёд Берглю, Юлиан Подольски, Бьёрн Сундквист- Описание:Главный герой – археолог Сигурд Свендсен, подобно знаменитому Индиане Джонсу, одержим идеей разгадать загадку далёкого прошлого. Его главный интерес – Осебергский корабль эпохи викингов. Учёный предполагает, что давно известное науке захоронение, где был найден корабль, таит в себе ещё одну, самую главную загадку, а именно – проливает свет на миф о Рагнароке, конце мира. А когда его приятель Аллан сообщает ему об обнаруженном в далёком Финнмарке руническом камне, который может подсказать разгадку тайны, ничто не может остановить Сигурда. Вместе с двумя своими детьми он, вопреки их желанию провести каникулы в тёплых странах, отправляется на самый север, в «ничейную» землю близ норвежско-российской границы. Их сопровождают Аллан, его подруга Элисабет и знаток местных достопримечательностей Лейф. Там героев ждут захватывающие приключения и встречи с неведомым… - Качество видео:BDRip 720p
Формат:MKV
Видео кодек:AVC
Аудио кодек:DTS
Видео:AVC at 4512 Кбит/сек, 1280 x 534 (2.397) at 24.000 fps
Аудио1:DTS at 1510 Кбит/сек, 6 каналов, 48,0 КГц Russian
Аудио2: DTS at 1509 Кбит/сек, 6 каналов, 48,0 КГц Norwegian- -

Дополнительно

Сохранены оригинальные чаптеры как на Blu-ray

Трейлер

Скриншоты

MediaInfo

Код: copyText_writeLink('this.parentNode.parentNode.nextSibling.nextSibling');
Код:
Общее
Уникальный идентификатор                 : 190241492981083315075036707498617790195 (0x8F1F2DC5D18702F297689D4EBBE0DEF3)
Полное имя                               : C:\Users\Raul\Downloads\Ragnarok.2013.Blu.Ray.720p.CINEMANIA.mkv
Формат                                   : Matroska
Версия формата                           : Version 4 / Version 2
Размер файла                             : 5,43 Гбайт
Продолжительность                        : 1 ч. 41 м.
Общий поток                              : 7684 Кбит/сек
Название фильма                          : Release Group CINEMANIA
Дата кодирования                         : UTC 2014-02-26 18:20:22
Программа кодирования                    : mkvmerge v6.7.0 ('Back to the Ground') 64bit built on Jan  8 2014 15:10:52
Библиотека кодирования                   : libebml v1.3.0 + libmatroska v1.4.1
Видео
Идентификатор                            : 1
Формат                                   : AVC
Формат/Информация                        : Advanced Video Codec
Профиль формата                          : [url=mailto:High@L4.1]High@L4.1[/url]
Параметр CABAC формата                   : Да
Параметр ReFrames формата                : 12 кадров
Идентификатор кодека                     : V_MPEG4/ISO/AVC
Продолжительность                        : 1 ч. 41 м.
Битрейт                                  : 4512 Кбит/сек
Ширина                                   : 1280 пикселей
Высота                                   : 534 пикселя
Соотношение сторон                       : 2,40:1
Режим частоты кадров                     : Постоянный
Частота кадров                           : 24,000 кадра/сек
Цветовое пространство                    : YUV
Субдискретизация насыщенности            : 4:2:0
Битовая глубина                          : 8 бит
Тип развёртки                            : Прогрессивная
Бит/(Пиксели*Кадры)                      : 0.275
Размер потока                            : 3,19 Гбайт (59%)
Заголовок                                : Release Group CINEMANIA
Язык                                     : English
Default                                  : Да
Forced                                   : Нет
Аудио #1
Идентификатор                            : 2
Формат                                   : DTS
Формат/Информация                        : Digital Theater Systems
Режим                                    : 16
Параметр Endianness формата              : Big
Идентификатор кодека                     : A_DTS
Продолжительность                        : 1 ч. 41 м.
Вид битрейта                             : Постоянный
Битрейт                                  : 1510 Кбит/сек
Каналы                                   : 6 каналов
Расположение каналов                     : Front: L C R, Side: L R, LFE
Частота                                  : 48,0 КГц
Битовая глубина                          : 24 бит
Метод сжатия                             : С потерями
Размер потока                            : 1,07 Гбайт (20%)
Заголовок                                : Влад и Снежинка
Язык                                     : Russian
Default                                  : Да
Forced                                   : Да
Аудио #2
Идентификатор                            : 3
Формат                                   : DTS
Формат/Информация                        : Digital Theater Systems
Режим                                    : 16
Параметр Endianness формата              : Big
Идентификатор кодека                     : A_DTS
Продолжительность                        : 1 ч. 41 м.
Вид битрейта                             : Постоянный
Битрейт                                  : 1509 Кбит/сек
Каналы                                   : 6 каналов
Расположение каналов                     : Front: L C R, Side: L R, LFE
Частота                                  : 48,0 КГц
Битовая глубина                          : 24 бит
Метод сжатия                             : С потерями
Размер потока                            : 1,07 Гбайт (20%)
Язык                                     : Norwegian
Default                                  : Нет
Forced                                   : Нет
Текст #1
Идентификатор                            : 4
Формат                                   : UTF-8
Идентификатор кодека                     : S_TEXT/UTF8
Идентификатор кодека/Информация          : UTF-8 Plain Text
Заголовок                                : Mannenr
Язык                                     : Russian
Default                                  : Нет
Forced                                   : Нет
Текст #2
Идентификатор                            : 5
Формат                                   : UTF-8
Идентификатор кодека                     : S_TEXT/UTF8
Идентификатор кодека/Информация          : UTF-8 Plain Text
Язык                                     : English
Default                                  : Нет
Forced                                   : Нет
Меню
00:00:00.000                             : en:00:00:00.000
00:07:07.667                             : en:00:07:07.667
00:16:23.167                             : en:00:16:23.167
00:24:55.000                             : en:00:24:55.000
00:33:32.542                             : en:00:33:32.542
00:40:07.417                             : en:00:40:07.417
00:52:19.250                             : en:00:52:19.250
00:58:54.667                             : en:00:58:54.667
01:07:07.000                             : en:01:07:07.000
01:15:54.292                             : en:01:15:54.292
01:26:06.375                             : en:01:26:06.375
01:36:25.458                             : en:01:36:25.458
[/spoiler]
© Оформление by Boika-Источник:

_________________
Показать сообщения:    

Текущее время: Сегодня 20:37

Часовой пояс: GMT



Вы не можете начинать темы
Вы не можете отвечать на сообщения
Вы не можете редактировать свои сообщения
Вы не можете удалять свои сообщения
Вы не можете голосовать в опросах
Вы не можете прикреплять файлы к сообщениям
Вы не можете скачивать файлы