Важное объявление!
У Нас Все раздачи мультитрекерные, при нуле пиров в релизах, можете смело вставать на закачку!
 
Автор Сообщение

HUNTER

Стаж:
4 года 4 месяца
Сообщений:
56798

Репутация: 101

[+] [-]
Вне форума [Профиль] [ЛС]

Тайна пропавшего рейса
ПРЕМЬЕРА! Фильм-сенсация
Дата/Год выпуска: 30.03.2014
Страна: Россия
Жанр: Документальный
Продолжительность: 00:44:00
Перевод: Не требуется
Русские субтитры: нет
Режиссер: Юлия Ермолина, Людмила Снигирева
Телеканал: Останкино
Описание: Исчезновение самолета Boeing стало «беспрецедентной загадкой»
Авиалайнер, совершавший рейс из столицы Малайзии Куала-Лумпура в Пекин с 227 пассажирами и 12 членами экипажа, в субботу пропал с экранов радаров. Правоохранители Малайзии приступили к расследованию версии о теракте на борту.
Авиалайнер национальной малайзийской авиалинии с 227 пассажирами и 12 членами экипажа на борту, совершавший совместный с китайской China Southern Airlines рейс из столицы Малайзии Куала-Лумпура в Пекин, пропал с экранов радаров в 02:40 субботы по малайзийскому времени (22:40 пятницы мск), не подав никаких сигналов о неполадках на борту, других проблемах или смене курса.
В момент последнего контакта он находился в 220 километрах от восточного побережья королевства. Погода в районе исчезновения была хорошей, самолет управлялся опытными летчиками (капитан — 53-летний подданный Малайзии Захари Ахмад Шах — работал в MAS с 1981 года, его налет достиг почти 18,5 тысячи часов; 27-летний второй пилот Фарик Аб Намид налетал 2763 часов) самолет прошел полную проверку всего за десять дней до этого рейса.
Сигналы «черных ящиков» авиалайнера самолета также не зарегистрированы. Между тем, при благоприятных обстоятельствах они должны быть слышны за несколько сотен миль, пишет Star со ссылкой на мнение одного из экс-сотрудников Национального бюро по безопасности на транспорте (НББТ) США.
К концу третьего дня активной поисково-спасательной операции в Южно-Китайском море, где в районе исчезновения с экранов радаров самолета Boeing 777-200 компании Malaysia Airlines (MAS) находятся уже десятки кораблей и самолетов дюжины стран мира, включая официально подключенных к ней в понедельник почти 1,8 тысячи малайзийских рыболовецких судов, пока что не удалось обнаружить никаких следов пропавшего авиалайнера.
«К сожалению, мы не смогли найти ничего, что выглядело бы как некий объект с самолета — не говоря уже о самом самолете», — заявил в понедельник на пресс-конференции глава департамента гражданской авиации королевства Азхаруддин Абдул Рахман (Azharuddin Abdul Rahman).
Еще ни разу столько времени не требовалось для того, чтобы установить местонахождение столь крупного и находившегося в зоне наблюдения самолета, приводит слова президента авиакомпании China Southern Airlines Сы Сяньминя малайзийская газета Star.
В результате фокус внимания в расследовании исчезновения авиалайнера, которое малайзийский чиновник назвал «беспрецедентной загадкой» в истории мировой авиации, постепенно смещается с естественного беспокойства о судьбах его пассажиров и экипажа на вопрос о том, что же произошло.
Сэмпл: http://multi-up.com/963156
качество: DVB
формат: TS/M2TS
Видео: AVC, аноморф. 720х576, 4:3, 2969 Кбит/сек, 25 fps
Аудио: AАC, 160 Кбит/сек, 48 КГц, 2 канала

MediaInfo

ОбщееИдентификатор : 16 (0x10)Полное имя : The mystery of the missing flight.tsФормат : MPEG-TSРазмер файла : 1,02 ГбайтПродолжительность : 44 м.Режим общего битрейта : ПеременныйОбщий поток : 3294 Кбит/сек
ВидеоИдентификатор : 1605 (0x645)Идентификатор меню : 605 (0x25D)Формат : AVCФормат/Информация : Advanced Video CodecПрофиль формата : High@L3.0Параметр CABAC формата : ДаПараметр ReFrames формата : 3 кадраИдентификатор кодека : 27Продолжительность : 44 м.Битрейт : 2969 Кбит/секШирина : 720 пикселейВысота : 576 пикселейСоотношение сторон : 4:3Частота кадров : 25,000 кадров/секСтандарт вещания : PALЦветовое пространство : YUVСубдискретизация насыщенности : 4:2:0Битовая глубина : 8 битТип развёртки : ЧересстрочнаяПорядок развёртки : Верхнее поле первоеБит/(Пиксели*Кадры) : 0.286Размер потока : 940 Мбайт (90%)Основные цвета : BT.601 PALХарактеристики трансфера : BT.470 System B, BT.470 System GКоэффициенты матрицы : BT.601
АудиоИдентификатор : 2605 (0xA2D)Идентификатор меню : 605 (0x25D)Формат : MPEG AudioВерсия формата : Version 1Профиль формата : Layer 2Идентификатор кодека : 4Продолжительность : 44 м.Вид битрейта : ПостоянныйБитрейт : 160 Кбит/секКаналы : 2 каналаЧастота : 48,0 КГцМетод сжатия : С потерямиЗадержка видео : 67 мс.Размер потока : 50,7 Мбайт (5%)Язык : stdЯзык, дополнительно : Clean effects

Скриншоты


_________________
Показать сообщения:    

Текущее время: Сегодня 04:10

Часовой пояс: GMT



Вы не можете начинать темы
Вы не можете отвечать на сообщения
Вы не можете редактировать свои сообщения
Вы не можете удалять свои сообщения
Вы не можете голосовать в опросах
Вы не можете прикреплять файлы к сообщениям
Вы не можете скачивать файлы