Важное объявление!
У Нас Все раздачи мультитрекерные, при нуле пиров в релизах, можете смело вставать на закачку!
 
Автор Сообщение

HUNTER

Стаж:
4 года 4 месяца
Сообщений:
56790

Репутация: 101

[+] [-]
Вне форума [Профиль] [ЛС]

--Таинственный Альберт Ноббс / Albert Nobbs
«A man with a secret. A woman with a dream»
--
Страна: Великобритания, Ирландия, Франция, США
Жанр: драма, мелодрама
Год выпуска: 2011
Продолжительность: 01:53:00-Перевод: Профессиональный (многоголосный закадровый)
Cубтитры: русские, английские
Оригинальная аудиодорожка: английский-Режиссер: Родриго Гарсия / Rodrigo Garcia
В ролях: Гленн Клоуз, Миа Васиковска, Аарон Тейлор-Джонсон, Джанет МакТир, Брендан Глисон, Джонатан Риз Майерс, Антония Кэмпбелл-Хьюджес, Полин Коллинз, Мария Дойл Кеннеди, Марк Уильямс и другие-Описание: 1898 год, Дублин. В небольшой гостинице Morrison’s живут самые разные люди: сбежавший от жены престарелый доктор Холлоран, французские снобы мадам и мсье Пиго, экономное семейство Мур, не чуждый гомоэротических утех виконт Яррелл и его супруга со схожими сексуальными предпочтениями… И каждому из них стремится услужить официант Альберт Ноббс.
Ему чуть больше сорока, и он успел поработать в лучших заведениях Лондона, Бристоля и Ливерпуля. Личной жизни у него практически нет. Пабам и варьете Ноббс предпочитает тихие вечера в своей каморке и бесконечное пересчитывание сбережений. Коллеги практически не обращают на него внимания, и это ему даже на руку. Ведь на самом деле Альберт — женщина, уже около тридцати лет успешно выдающая себя за представителя сильного пола…
-Мировая премьера: 02 сентября 2011 г. | Премьера Украина: 17 ноября 2011 г.Бюджет: $8 000 000- -Тип релиза: BDRip 720p
Контейнер: MKV
Видео: 1280x546 (2.35:1), 23,976 fps, AVC ~4100 kbps avg, 0.245 bit/pixel
Аудио#1: Russian 48 kHz, Digital Theater Systems, 3/2 (L,C,R,l,r) + LFE ch, ~755.00 kbps avg
Аудио#2: English 48 kHz, Digital Theater Systems, 3/2 (L,C,R,l,r) + LFE ch, ~1509.00 kbps avg
-

MediaInfo

Код:
Общее
Уникальный идентификатор                 : 202426997867600137113591003488114380899 (0x984A058C76CFE889ADF47C81E0D71063)
Полное имя                               : D:\Video\mkv\Tainstvennyj.Albert.Nobbs.2011.BDRip.720p.mkv
Формат                                   : Matroska
Версия формата                           : Version 2
Размер файла                             : 5,04 Гбайт
Продолжительность                        : 1 ч. 53 м.
Общий поток                              : 6364 Кбит/сек
Название фильма                          : IRONCLUB
Дата кодирования                         : UTC 2012-06-20 08:08:26
Программа кодирования                    : mkvmerge v4.9.1 ('Ich will') built on Jul 11 2011 23:53:15
Библиотека кодирования                   : libebml v1.2.1 + libmatroska v1.1.1
Видео
Идентификатор                            : 1
Формат                                   : AVC
Формат/Информация                        : Advanced Video Codec
Профиль формата                          : High@L4.1
Параметр CABAC формата                   : Да
Параметр ReFrames формата                : 11 кадров
Идентификатор кодека                     : V_MPEG4/ISO/AVC
Продолжительность                        : 1 ч. 53 м.
Битрейт                                  : 4100 Кбит/сек
Ширина                                   : 1280 пикселей
Высота                                   : 546 пикселей
Соотношение сторон                       : 2,35:1
Режим частоты кадров                     : Постоянный
Частота кадров                           : 23,976 кадра/сек
Цветовое пространство                    : YUV
Субдискретизация насыщенности            : 4:2:0
Битовая глубина                          : 8 бит
Тип развёртки                            : Прогрессивная
Бит/(Пиксели*Кадры)                      : 0.245
Размер потока                            : 3,15 Гбайт (62%)
Заголовок                                : Albert.Nobbs.2011.720p.BluRay.x264.DTS-HDChina
Библиотека кодирования                   : x264 core 124 r2197 69a0443
Настройки программы                      : cabac=1 / ref=11 / deblock=1:-3:-3 / analyse=0x3:0x113 / me=umh / subme=10 / psy=1 / psy_rd=1.00:0.00 / mixed_ref=1 / me_range=32 / chroma_me=1 / trellis=2 / 8x8dct=1 / cqm=0 / deadzone=21,11 / fast_pskip=0 / chroma_qp_offset=-2 / threads=18 / sliced_threads=0 / nr=0 / decimate=0 / interlaced=0 / bluray_compat=0 / constrained_intra=0 / bframes=7 / b_pyramid=2 / b_adapt=2 / b_bias=0 / direct=3 / weightb=1 / open_gop=0 / weightp=2 / keyint=240 / keyint_min=24 / scenecut=40 / intra_refresh=0 / rc_lookahead=240 / rc=2pass / mbtree=1 / bitrate=4100 / ratetol=1.0 / qcomp=0.70 / qpmin=0 / qpmax=69 / qpstep=4 / cplxblur=20.0 / qblur=0.5 / ip_ratio=1.40 / aq=1:1.10
Язык                                     : English
Default                                  : Да
Forced                                   : Да
Аудио #1
Идентификатор                            : 2
Формат                                   : DTS
Формат/Информация                        : Digital Theater Systems
Режим                                    : 16
Параметр Endianness формата              : Big
Идентификатор кодека                     : A_DTS
Продолжительность                        : 1 ч. 53 м.
Вид битрейта                             : Постоянный
Битрейт                                  : 755 Кбит/сек
Каналы                                   : 6 каналов
Расположение каналов                     : Front: L C R, Side: L R, LFE
Частота                                  : 48,0 КГц
Битовая глубина                          : 16 бит
Метод сжатия                             : С потерями
Размер потока                            : 612 Мбайт (12%)
Заголовок                                : DTS 5.1 @ 768 kbps - Dub, R5
Язык                                     : Russian
Default                                  : Да
Forced                                   : Да
Аудио #2
Идентификатор                            : 3
Формат                                   : DTS
Формат/Информация                        : Digital Theater Systems
Режим                                    : 16
Параметр Endianness формата              : Big
Идентификатор кодека                     : A_DTS
Продолжительность                        : 1 ч. 53 м.
Вид битрейта                             : Постоянный
Битрейт                                  : 1509 Кбит/сек
Каналы                                   : 6 каналов
Расположение каналов                     : Front: L C R, Side: L R, LFE
Частота                                  : 48,0 КГц
Битовая глубина                          : 16 бит
Метод сжатия                             : С потерями
Размер потока                            : 1,20 Гбайт (24%)
Заголовок                                : DTS 5.1 @ 1536 kbps
Язык                                     : English
Default                                  : Нет
Forced                                   : Нет
Текст #1
Идентификатор                            : 4
Формат                                   : UTF-8
Идентификатор кодека                     : S_TEXT/UTF8
Идентификатор кодека/Информация          : UTF-8 Plain Text
Заголовок                                : R5
Язык                                     : Russian
Default                                  : Нет
Forced                                   : Нет
Текст #2
Идентификатор                            : 5
Формат                                   : UTF-8
Идентификатор кодека                     : S_TEXT/UTF8
Идентификатор кодека/Информация          : UTF-8 Plain Text
Язык                                     : English
Default                                  : Нет
Forced                                   : Нет

Интересные факты

»»» Гленн Клоуз уже играла Альберта Ноббса в одноимённом спектакле 1982 года, и потратила 15 лет на то, чтобы рассказ Джорджа Мура был экранизирован. В начале 2000-х производство фильма сдвинулось с мертвой точки. На пост режиссёра был утверждён Иштван Сабо. Однако тогда не хватило денег, выделенных на создание картины.-»»» Съёмки фильма стартовали в декабре 2010 года. На роли Хелен Доуз и Джо рассматривались Аманда Сайфред и Орландо Блум, которых позже заменили Миа Васиковска и Аарон Тейлор-Джонсон.

Награды

Оскар, 2012 год
Номинации (3):
»»» Лучшая женская роль (Гленн Клоуз)
»»» Лучшая женская роль второго плана (Джанет МакТир)
»»» Лучший грим
-Золотой глобус, 2012 год
Номинации (3):
»»» Лучшая женская роль (драма) (Гленн Клоуз)
»»» Лучшая женская роль второго плана (Джанет МакТир)
»»» Лучшая песня«Lay Your Head Down»

-
Премия Гильдии актеров, 2012 год
Номинации (2):
»»» Лучшая женская роль (Гленн Клоуз)
»»» Лучшая женская роль второго плана (Джанет МакТир)
-Сан-Себастьян, 2011 год
Победитель (1):
»»» Приз Себастьяна

Скриншоты



_________________
Показать сообщения:    

Текущее время: Сегодня 18:42

Часовой пояс: GMT



Вы не можете начинать темы
Вы не можете отвечать на сообщения
Вы не можете редактировать свои сообщения
Вы не можете удалять свои сообщения
Вы не можете голосовать в опросах
Вы не можете прикреплять файлы к сообщениям
Вы не можете скачивать файлы