Важное объявление!
У Нас Все раздачи мультитрекерные, при нуле пиров в релизах, можете смело вставать на закачку!
 
Автор Сообщение

HUNTER

Стаж:
4 года 4 месяца
Сообщений:
56749

Репутация: 101

[+] [-]
Вне форума [Профиль] [ЛС]

Таинственная незнакомка / Бумажный детектив / Mystery Woman-Таинственная незнакомка 1: Таинственный уик-энд / Mystery Woman: Mystery Weekend

Год выпуска: 2005
Страна: США
Жанр: Детектив
Продолжительность: 01:23:29
Перевод: Профессиональный (многоголосый закадровый)
Русские субтитры: нет
Режиссёр: Марк Гриффитс / Mark Griffiths
В ролях: Келли Мартин, Кларенс Уильямс III, Нина Семашко
Описание:
Любительница детективов и хозяйка книжного магазина Саманта Кинси пригласила трёх наиболее популярных авторов для встречи с читателями. Этот рекламный трюк оборачивается реальным убийством и вынуждает Саманту выявить подозреваемых и мотивы убийства, прежде чем фанат-убийца нанесёт новый удар.
Video: 720x400 (1.80:1), 25 fps, XviD build 50 ~1999 kbps avg, 0.28 bit/pixel
Audio: 48 kHz, AC3 Dolby Digital, 2/0 (L,R) ch, ~192 kbps

скрытый текст

Таинственная незнакомка [Бумажный детектив] - Mystery Woman [by Edich2]\Таинственная незнакомка 1. Таинственный уик-энд.avi
Format : AVI
Format/Info : Audio Video Interleave
File size : 1.28 GiB
Duration : 1h 23mn
Overall bit rate : 2 202 Kbps
Writing application : VirtualDubMod 1.5.10.3 | www.virtualdub-fr.org || (build 2550/release)
Writing library : VirtualDubMod build 2550/release
Video
ID : 0
Format : MPEG-4 Visual
Format profile : Advanced Simple@L5
Format settings, BVOP : 2
Format settings, QPel : No
Format settings, GMC : No warppoints
Format settings, Matrix : Custom
Codec ID : XVID
Codec ID/Hint : XviD
Duration : 1h 23mn
Bit rate : 2 000 Kbps
Width : 720 pixels
Height : 400 pixels
Display aspect ratio : 16:9
Frame rate : 25.000 fps
Color space : YUV
Chroma subsampling : 4:2:0
Bit depth : 8 bits
Scan type : Progressive
Compression mode : Lossy
Bits/(Pixel*Frame) : 0.278
Stream size : 1.17 GiB (91%)
Writing library : XviD 1.2.1 (UTC 2008-12-04)
Audio
ID : 1
Format : AC-3
Format/Info : Audio Coding 3
Mode extension : CM (complete main)
Format settings, Endianness : Big
Codec ID : 2000
Duration : 1h 23mn
Bit rate mode : Constant
Bit rate : 192 Kbps
Channel(s) : 2 channels
Channel positions : Front: L R
Sampling rate : 48.0 KHz
Bit depth : 16 bits
Compression mode : Lossy
Stream size : 115 MiB (9%)
Alignment : Split accross interleaves
Interleave, duration : 40 ms (1.00 video frame)
Interleave, preload duration : 500 ms

скрытый текст


-
Таинственная незнакомка 2: Роковые снимки / Mystery Woman: Snapshot

Год выпуска: 2005
Страна: США
Жанр: Детектив
Продолжительность: 01:21:32
Перевод: Профессиональный (многоголосый закадровый)
Русские субтитры: нет
Режиссёр: Георг Стэнфорд Браун / Georg Stanford Brown
В ролях: Келли Мартин, Кларенс Уильямс III, Нина Семашко
Описание:
В автокатастрофе погибает брат Барбары, подруги Саманты — в полиции говорят, что он «по пьяни не вписался в поворот». Выстрелом в грудь на пороге своего дома убита сама Барбара — в полиции склоняются к версии ограбления. Однако при жизни Барбара в беседах с Самантой говорила, что ее родственники ведут грязную игру вокруг наследства, и когда Барбара погибает, Саманта ни минуты не сомневается, что ее подруга убита по другим причинам. Еще бы — кто же пойдет на ограбление с Люггером времен 2-й мировой войны? Да и брат Барбары из-за диабета давно бросил не то что пить, а даже выпивать!!!
Полиция ее не слышит, и тогда любительница частного сыска берется за самостоятельное расследование с целью выяснить: был ли это зловещий семейный заговор, отягощенный круговой порукой, или орудует хитроумный одиночка…, а наткнувшись на букет с запиской «Занимайся своими делами или эти цветы принесут на твою могилу» она понимает, что ее путь верный, хотя и ведет ее, как и все предыдущие расследования, по лезвию бритвы…
Video: 720x400 (1.80:1), 25 fps, XviD build 50 ~1999 kbps avg, 0.28 bit/pixel
Audio: 48 kHz, AC3 Dolby Digital, 2/0 (L,R) ch, ~192 kbps

скрытый текст

Таинственная незнакомка [Бумажный детектив] - Mystery Woman [by Edich2]\Таинственная незнакомка 2. Роковые снимки..avi
Format : AVI
Format/Info : Audio Video Interleave
File size : 1.25 GiB
Duration : 1h 21mn
Overall bit rate : 2 202 Kbps
Writing application : VirtualDubMod 1.5.10.3 | www.virtualdub-fr.org || (build 2550/release)
Writing library : VirtualDubMod build 2550/release
Video
ID : 0
Format : MPEG-4 Visual
Format profile : Advanced Simple@L5
Format settings, BVOP : 2
Format settings, QPel : No
Format settings, GMC : No warppoints
Format settings, Matrix : Custom
Codec ID : XVID
Codec ID/Hint : XviD
Duration : 1h 21mn
Bit rate : 2 000 Kbps
Width : 720 pixels
Height : 400 pixels
Display aspect ratio : 16:9
Frame rate : 25.000 fps
Color space : YUV
Chroma subsampling : 4:2:0
Bit depth : 8 bits
Scan type : Progressive
Compression mode : Lossy
Bits/(Pixel*Frame) : 0.278
Stream size : 1.14 GiB (91%)
Writing library : XviD 1.2.1 (UTC 2008-12-04)
Audio
ID : 1
Format : AC-3
Format/Info : Audio Coding 3
Mode extension : CM (complete main)
Format settings, Endianness : Big
Codec ID : 2000
Duration : 1h 21mn
Bit rate mode : Constant
Bit rate : 192 Kbps
Channel(s) : 2 channels
Channel positions : Front: L R
Sampling rate : 48.0 KHz
Bit depth : 16 bits
Compression mode : Lossy
Stream size : 112 MiB (9%)
Alignment : Split accross interleaves
Interleave, duration : 40 ms (1.00 video frame)
Interleave, preload duration : 500 ms

скрытый текст


-
Таинственная незнакомка 3: Песнь об убийстве. / Mystery Woman: Sing me a Murder

Год выпуска: 2005
Страна: США
Жанр: Детектив
Продолжительность: 01:23:31
Перевод: Профессиональный (многоголосый закадровый)
Русские субтитры: нет
Режиссёр: Келли Мартин / Kellie Martin
В ролях: Келли Мартин, Кларенс Уильямс III, Нина Семашко
Описание:
Правильное — Саманта Кинси, решившая провести выходные на курорте, неожиданно оказывается втянутой в серьезные неприятности, связанные с убийством одной из посетительниц. Мотивы убийства могут быть различными: жадность, измена, предательство. И только экстрасенсу дано узнать, что же на самом деле произошло и почему?
Video: 720x400 (1.80:1), 25 fps, XviD build 50 ~1999 kbps avg, 0.28 bit/pixel
Audio: 48 kHz, AC3 Dolby Digital, 2/0 (L,R) ch, ~192 kbps

скрытый текст

Таинственная незнакомка 3. Песнь об убийствее..avi
Format : AVI
Format/Info : Audio Video Interleave
File size : 1.28 GiB
Duration : 1h 23mn
Overall bit rate : 2 202 Kbps
Writing application : VirtualDubMod 1.5.10.3 | www.virtualdub-fr.org || (build 2550/release)
Writing library : VirtualDubMod build 2550/release
Video
ID : 0
Format : MPEG-4 Visual
Format profile : Advanced Simple@L5
Format settings, BVOP : 2
Format settings, QPel : No
Format settings, GMC : No warppoints
Format settings, Matrix : Custom
Codec ID : XVID
Codec ID/Hint : XviD
Duration : 1h 23mn
Bit rate : 2 000 Kbps
Width : 720 pixels
Height : 400 pixels
Display aspect ratio : 16:9
Frame rate : 25.000 fps
Color space : YUV
Chroma subsampling : 4:2:0
Bit depth : 8 bits
Scan type : Progressive
Compression mode : Lossy
Bits/(Pixel*Frame) : 0.278
Stream size : 1.17 GiB (91%)
Writing library : XviD 1.2.1 (UTC 2008-12-04)
Audio
ID : 1
Format : AC-3
Format/Info : Audio Coding 3
Mode extension : CM (complete main)
Format settings, Endianness : Big
Codec ID : 2000
Duration : 1h 23mn
Bit rate mode : Constant
Bit rate : 192 Kbps
Channel(s) : 2 channels
Channel positions : Front: L R
Sampling rate : 48.0 KHz
Bit depth : 16 bits
Compression mode : Lossy
Stream size : 115 MiB (9%)
Alignment : Split accross interleaves
Interleave, duration : 40 ms (1.00 video frame)
Interleave, preload duration : 500 ms

скрытый текст


-
Таинственная незнакомка 4 - Предвиденье убийства (Видение убийства) / Mystery Woman 4: Vision of a murder

Год выпуска: 2006
Страна: США
Жанр: Детектив
Продолжительность: 01:22:41
Перевод: Профессиональный (многоголосый закадровый)
Русские субтитры: нет
Режиссёр: Келли Мартин / Kellie Martin
В ролях: Келли Мартин, Кларенс Уильямс III, Нина Семашко
Описание:
Саманте поступает предложение по работе от СПА-отеля, где на следующий день происходит убийство гостьи. Раскрыть это преступление детективу-любительнице поможет сотрудница отеля, обладающая экстрасенсорными способностями.
Video: 720x400 (1.80:1), 25 fps, XviD build 50 ~1999 kbps avg, 0.28 bit/pixel
Audio: 48 kHz, AC3 Dolby Digital, 2/0 (L,R) ch, ~192 kbps

скрытый текст

Таинственная незнакомка [Бумажный детектив] - Mystery Woman [by Edich2]\Таинственная незнакомка 4 - Предвиденье убийства.avi
Format : AVI
Format/Info : Audio Video Interleave
File size : 1.27 GiB
Duration : 1h 22mn
Overall bit rate : 2 202 Kbps
Writing application : VirtualDubMod 1.5.10.3 | www.virtualdub-fr.org || (build 2550/release)
Writing library : VirtualDubMod build 2550/release
Video
ID : 0
Format : MPEG-4 Visual
Format profile : Advanced Simple@L5
Format settings, BVOP : 1
Format settings, QPel : No
Format settings, GMC : No warppoints
Format settings, Matrix : Default (MPEG)
Codec ID : XVID
Codec ID/Hint : XviD
Duration : 1h 22mn
Bit rate : 2 000 Kbps
Width : 720 pixels
Height : 400 pixels
Display aspect ratio : 16:9
Frame rate : 25.000 fps
Color space : YUV
Chroma subsampling : 4:2:0
Bit depth : 8 bits
Scan type : Progressive
Compression mode : Lossy
Bits/(Pixel*Frame) : 0.278
Stream size : 1.16 GiB (91%)
Writing library : XviD 1.2.1 (UTC 2008-12-04)
Audio
ID : 1
Format : AC-3
Format/Info : Audio Coding 3
Mode extension : CM (complete main)
Format settings, Endianness : Big
Codec ID : 2000
Duration : 1h 22mn
Bit rate mode : Constant
Bit rate : 192 Kbps
Channel(s) : 2 channels
Channel positions : Front: L R
Sampling rate : 48.0 KHz
Bit depth : 16 bits
Compression mode : Lossy
Stream size : 114 MiB (9%)
Alignment : Split accross interleaves
Interleave, duration : 40 ms (1.00 video frame)
Interleave, preload duration : 500 ms

скрытый текст




-
Таинственная незнакомка 5 - Искупление / Mystery Woman 5: Redemption

Год выпуска: 2006
Страна: США
Жанр: Детектив
Продолжительность: 01:18:41
Перевод: Профессиональный (многоголосый закадровый)
Русские субтитры: нет
Режиссёр: Дэвид С. Касс ст. / David S. Cass Sr.
В ролях: Келли Мартин, Кларенс Уильямс III, Нина Семашко
Описание:
Убит друг Саманты Джим Картер. Полиция считает, что убийство произошло в ходе неудачного ограбления, но женщина не разделяет их мнения. Саманта Кинси и Филби приступают к собственному расследованию.
Video: 720x400 (1.80:1), 25 fps, XviD build 50 ~1999 kbps avg, 0.28 bit/pixel
Audio: 48 kHz, AC3 Dolby Digital, 2/0 (L,R) ch, ~192 kbps

скрытый текст

Таинственная незнакомка [Бумажный детектив] - Mystery Woman [by Edich2]\Таинственная незнакомка 5 - Искупление.avi
Format : AVI
Format/Info : Audio Video Interleave
File size : 1.21 GiB
Duration : 1h 18mn
Overall bit rate : 2 202 Kbps
Writing application : VirtualDubMod 1.5.10.3 | www.virtualdub-fr.org || (build 2550/release)
Writing library : VirtualDubMod build 2550/release
Video
ID : 0
Format : MPEG-4 Visual
Format profile : Advanced Simple@L5
Format settings, BVOP : 1
Format settings, QPel : No
Format settings, GMC : No warppoints
Format settings, Matrix : Default (MPEG)
Codec ID : XVID
Codec ID/Hint : XviD
Duration : 1h 18mn
Bit rate : 2 000 Kbps
Width : 720 pixels
Height : 400 pixels
Display aspect ratio : 16:9
Frame rate : 25.000 fps
Color space : YUV
Chroma subsampling : 4:2:0
Bit depth : 8 bits
Scan type : Progressive
Compression mode : Lossy
Bits/(Pixel*Frame) : 0.278
Stream size : 1.10 GiB (91%)
Writing library : XviD 1.2.1 (UTC 2008-12-04)
Audio
ID : 1
Format : AC-3
Format/Info : Audio Coding 3
Mode extension : CM (complete main)
Format settings, Endianness : Big
Codec ID : 2000
Duration : 1h 18mn
Bit rate mode : Constant
Bit rate : 192 Kbps
Channel(s) : 2 channels
Channel positions : Front: L R
Sampling rate : 48.0 KHz
Bit depth : 16 bits
Compression mode : Lossy
Stream size : 108 MiB (9%)
Alignment : Split accross interleaves
Interleave, duration : 40 ms (1.00 video frame)
Interleave, preload duration : 500 ms

скрытый текст


-
Таинственная незнакомка 6 - Секрет игры (Песнь об убийстве) / Mystery Woman 6: Sing me a Murder

Год выпуска: 2006
Страна: США
Жанр: Детектив
Продолжительность: 01:22:31
Перевод: Профессиональный (многоголосый закадровый)
Русские субтитры: нет
Режиссёр: Дэвид С. Касс ст. / David S. Cass Sr.
В ролях: Келли Мартин, Кларенс Уильямс III, Нина Семашко
Описание:
В книжной лавке Саманты сталкиваются известный писатель и создатель компьютерной игры. На первый взгляд их ничего не связывает, но это не совсем так. Вскоре после этой встречи Саманта находит автора мёртвым, а рядом с трупом стоит разработчик игры.
Video: 720x400 (1.80:1), 25 fps, XviD build 50 ~1999 kbps avg, 0.28 bit/pixel
Audio: 48 kHz, AC3 Dolby Digital, 2/0 (L,R) ch, ~192 kbps

скрытый текст

Таинственная незнакомка [Бумажный детектив] - Mystery Woman [by Edich2]\Таинственная незнакомка 6 - Секрет игры.avi
Format : AVI
Format/Info : Audio Video Interleave
File size : 1.27 GiB
Duration : 1h 22mn
Overall bit rate : 2 202 Kbps
Writing application : VirtualDubMod 1.5.10.3 | www.virtualdub-fr.org || (build 2550/release)
Writing library : VirtualDubMod build 2550/release
Video
ID : 0
Format : MPEG-4 Visual
Format profile : Advanced Simple@L5
Format settings, BVOP : 1
Format settings, QPel : No
Format settings, GMC : No warppoints
Format settings, Matrix : Default (MPEG)
Codec ID : XVID
Codec ID/Hint : XviD
Duration : 1h 22mn
Bit rate : 2 000 Kbps
Width : 720 pixels
Height : 400 pixels
Display aspect ratio : 16:9
Frame rate : 25.000 fps
Color space : YUV
Chroma subsampling : 4:2:0
Bit depth : 8 bits
Scan type : Progressive
Compression mode : Lossy
Bits/(Pixel*Frame) : 0.278
Stream size : 1.15 GiB (91%)
Writing library : XviD 1.2.1 (UTC 2008-12-04)
Audio
ID : 1
Format : AC-3
Format/Info : Audio Coding 3
Mode extension : CM (complete main)
Format settings, Endianness : Big
Codec ID : 2000
Duration : 1h 22mn
Bit rate mode : Constant
Bit rate : 192 Kbps
Channel(s) : 2 channels
Channel positions : Front: L R
Sampling rate : 48.0 KHz
Bit depth : 16 bits
Compression mode : Lossy
Stream size : 113 MiB (9%)
Alignment : Split accross interleaves
Interleave, duration : 40 ms (1.00 video frame)
Interleave, preload duration : 500 ms

скрытый текст


-
Таинственная незнакомка 7: С первого взгляда. / Mystery Woman: At First Sight

Год выпуска: 2006
Страна: США
Жанр: Детектив
Продолжительность: 01:21:36
Перевод: Профессиональный (многоголосый закадровый)
Русские субтитры: нет
Режиссёр: Келли Мартин / Kellie Martin
В ролях: Келли Мартин, Кларенс Уильямс III, Нина Семашко
Описание:
Во время визита к врачу-окулисту Саманта, удочеренная приемными родителями, узнает, что все её проблемы со зрением, возможно, связаны с наследственностью. Начав поиски своей биологической матери, она сталкивается с убийством. Теперь Саманте предстоит доказать, что найденная ей мать — невиновна.
Video: 720x400 (1.80:1), 25 fps, XviD build 50 ~1999 kbps avg, 0.28 bit/pixel
Audio: 48 kHz, AC3 Dolby Digital, 2/0 (L,R) ch, ~192 kbps

скрытый текст

Таинственная незнакомка 7. С первого взгляда..avi
Format : AVI
Format/Info : Audio Video Interleave
File size : 1.26 GiB
Duration : 1h 21mn
Overall bit rate : 2 202 Kbps
Writing application : VirtualDubMod 1.5.10.3 | www.virtualdub-fr.org || (build 2550/release)
Writing library : VirtualDubMod build 2550/release
Video
ID : 0
Format : MPEG-4 Visual
Format profile : Advanced Simple@L5
Format settings, BVOP : 2
Format settings, QPel : No
Format settings, GMC : No warppoints
Format settings, Matrix : Custom
Codec ID : XVID
Codec ID/Hint : XviD
Duration : 1h 21mn
Bit rate : 2 000 Kbps
Width : 720 pixels
Height : 400 pixels
Display aspect ratio : 16:9
Frame rate : 25.000 fps
Color space : YUV
Chroma subsampling : 4:2:0
Bit depth : 8 bits
Scan type : Progressive
Compression mode : Lossy
Bits/(Pixel*Frame) : 0.278
Stream size : 1.14 GiB (91%)
Writing library : XviD 1.2.1 (UTC 2008-12-04)
Audio
ID : 1
Format : AC-3
Format/Info : Audio Coding 3
Mode extension : CM (complete main)
Format settings, Endianness : Big
Codec ID : 2000
Duration : 1h 21mn
Bit rate mode : Constant
Bit rate : 192 Kbps
Channel(s) : 2 channels
Channel positions : Front: L R
Sampling rate : 48.0 KHz
Bit depth : 16 bits
Compression mode : Lossy
Stream size : 112 MiB (9%)
Alignment : Split accross interleaves
Interleave, duration : 40 ms (1.00 video frame)
Interleave, preload duration : 500 ms

скрытый текст


-
СЕМПЛЫ НА ВСЕ ЧАСТИ (ПО ПОРЯДКУ):
https://yadi.sk/i/wGmmfsR6gNz4Z
https://yadi.sk/i/NcTAmofugNz4q
https://yadi.sk/i/YFhZvq5WgNz58
https://yadi.sk/i/1UyLR96OgNz5L
https://yadi.sk/i/mIzjqabxgNz5W
https://yadi.sk/i/Efxur6_ugNz5n
https://yadi.sk/i/zTvjaXCDgNz5x
За исходники спасибо Ledy_X (4,5,6) и Romanok8691 (1,2,3, 7)

_________________
Показать сообщения:    

Текущее время: Сегодня 01:49

Часовой пояс: GMT



Вы не можете начинать темы
Вы не можете отвечать на сообщения
Вы не можете редактировать свои сообщения
Вы не можете удалять свои сообщения
Вы не можете голосовать в опросах
Вы не можете прикреплять файлы к сообщениям
Вы не можете скачивать файлы