Важное объявление!
У Нас Все раздачи мультитрекерные, при нуле пиров в релизах, можете смело вставать на закачку!
 
Автор Сообщение

HUNTER

Стаж:
4 года 4 месяца
Сообщений:
56853

Репутация: 101

[+] [-]
Вне форума [Профиль] [ЛС]

Сюрприз / De Surprise
Страна: Нидерланды, Бельгия, Германия, Ирландия
Студия: Fastnet Films
Жанр: комедия, мелодрама
Год выпуска: 2015
Продолжительность: 01:41:21
Перевод: Профессиональный (дублированный) iTunes
Cубтитры: нидерландские
Оригинальная аудиодорожка: нидерландский
Режиссер: Майк ван Дим / Mike van Diem
В ролях: Йерун ван Конингсбругге, Джорджина Вербаан, Ян Деклер, Генри Гудман, Анкур Баль, Навид Чоудри, Оливер Гатс, Ронни Джатти, Элизабет Андерсен, Тамар Баруч
Описание: Эксцентричный мультимиллионер подписывает соглашение о «прекращении» своей жизни. Выбирая гроб для похорон, он знакомится с подписавшей аналогичный договор молодой женщиной. Проблемы возникают после того, как они влюбляются друг в друга и пытаются расторгнуть заключенные контракты…

Исходник: De Surprise 2015 1080p NLD Blu-ray AVC DTS-HD MA 5.1
Тип релиза: BDRip 720p / Tonik
Контейнер: MKV
Видео: MPEG-4 AVC, 5145 Кбит/с, 1280x536, 24,000 fps
Аудио: Rus, AC3, 384 kb/s (6 ch), 48 kHz
Аудио 2: Dut, DTS, 1510 kb/s (6 ch), 48 kHz
Формат субтитров: softsub (SRT)

MediaInfo

x264 [info]: frame I:1443 Avg QP:13.63 size:139639
x264 [info]: frame P:30940 Avg QP:15.34 size: 53875
x264 [info]: frame B:113686 Avg QP:16.54 size: 18931
Format : Matroska
Format version : Version 4 / Version 2
File size : 5.09 GiB
Duration : 1h 41mn
Overall bit rate : 7 181 Kbps
Movie name : Сюрприз. (Tonik)
Encoded date : UTC 2015-12-28 23:24:49
Writing application : mkvmerge v7.1.0 ('Good Love') 64bit built on Jul 27 2014 13:06:55
Writing library : libebml v1.3.0 + libmatroska v1.4.1
DURATION : 01:35:14.416000000
NUMBER_OF_FRAMES : 943
NUMBER_OF_BYTES : 38437
_STATISTICS_WRITING_APP : mkvmerge v7.1.0 ('Good Love') 64bit built on Jul 27 2014 13:06:55
_STATISTICS_WRITING_DATE_UTC : 2015-12-28 23:24:49
_STATISTICS_TAGS : BPS DURATION NUMBER_OF_FRAMES NUMBER_OF_BYTES
Video
ID : 1
Format : AVC
Format/Info : Advanced Video Codec
Format profile : High@L4.1
Format settings, CABAC : Yes
Format settings, ReFrames : 12 frames
Codec ID : V_MPEG4/ISO/AVC
Duration : 1h 41mn
Bit rate : 5 145 Kbps
Width : 1 280 pixels
Height : 536 pixels
Display aspect ratio : 2.40:1
Frame rate mode : Constant
Frame rate : 24.000 fps
Color space : YUV
Chroma subsampling : 4:2:0
Bit depth : 8 bits
Scan type : Progressive
Bits/(Pixel*Frame) : 0.312
Stream size : 3.65 GiB (72%)
Title : Tonik
Writing library : x264 core 148 r2597 e86f3a1
Encoding settings : cabac=1 / ref=12 / deblock=1:-3:-3 / analyse=0x3:0x133 / me=umh / subme=11 / psy=1 / psy_rd=1.00:0.00 / mixed_ref=1 / me_range=32 / chroma_me=1 / trellis=2 / 8x8dct=1 / cqm=0 / deadzone=21,11 / fast_pskip=0 / chroma_qp_offset=-2 / threads=12 / lookahead_threads=3 / sliced_threads=0 / nr=0 / decimate=0 / interlaced=0 / bluray_compat=0 / constrained_intra=0 / bframes=11 / b_pyramid=2 / b_adapt=2 / b_bias=0 / direct=3 / weightb=1 / open_gop=0 / weightp=2 / keyint=250 / keyint_min=24 / scenecut=40 / intra_refresh=0 / rc=crf / mbtree=0 / crf=15.8 / qcomp=0.60 / qpmin=0 / qpmax=69 / qpstep=4 / ip_ratio=1.40 / pb_ratio=1.30 / aq=1:1.00
Language : Dutch
Default : Yes
Forced : No
DURATION : 01:41:26.209000000
NUMBER_OF_FRAMES : 146069
NUMBER_OF_BYTES : 4020630170
_STATISTICS_WRITING_APP : mkvmerge v7.1.0 ('Good Love') 64bit built on Jul 27 2014 13:06:55
_STATISTICS_WRITING_DATE_UTC : 2015-12-28 23:24:49
_STATISTICS_TAGS : BPS DURATION NUMBER_OF_FRAMES NUMBER_OF_BYTES
Audio #1
ID : 2
Format : AC-3
Format/Info : Audio Coding 3
Mode extension : CM (complete main)
Format settings, Endianness : Big
Codec ID : A_AC3
Duration : 1h 41mn
Bit rate mode : Constant
Bit rate : 384 Kbps
Channel(s) : 6 channels
Channel positions : Front: L C R, Side: L R, LFE
Sampling rate : 48.0 KHz
Bit depth : 16 bits
Compression mode : Lossy
Stream size : 279 MiB (5%)
Language : Russian
Default : Yes
Forced : No
Audio #2
ID : 3
Format : DTS
Format/Info : Digital Theater Systems
Mode : 16
Format settings, Endianness : Big
Codec ID : A_DTS
Duration : 1h 41mn
Bit rate mode : Constant
Bit rate : 1 509 Kbps
Channel(s) : 6 channels
Channel positions : Front: L C R, Side: L R, LFE
Sampling rate : 48.0 KHz
Bit depth : 16 bits
Compression mode : Lossy
Stream size : 1.07 GiB (21%)
Language : Dutch
Default : No
Forced : No
Text
ID : 4
Format : UTF-8
Codec ID : S_TEXT/UTF8
Codec ID/Info : UTF-8 Plain Text
Language : Dutch
Default : No
Forced : No
Menu
00:00:00.000 : :Chapter 01
00:10:12.458 : :Chapter 02
00:24:19.500 : :Chapter 03
00:39:15.666 : :Chapter 04
00:43:41.875 : :Chapter 05
00:56:47.750 : :Chapter 06
01:06:20.291 : :Chapter 07
01:19:33.000 : :Chapter 08
01:29:42.333 : :Chapter 09
01:41:14.041 : :Chapter 10

Скриншоты


_________________
Показать сообщения:    

Текущее время: Сегодня 13:42

Часовой пояс: GMT



Вы не можете начинать темы
Вы не можете отвечать на сообщения
Вы не можете редактировать свои сообщения
Вы не можете удалять свои сообщения
Вы не можете голосовать в опросах
Вы не можете прикреплять файлы к сообщениям
Вы не можете скачивать файлы
Наши партнеры: интернет магазин Ивановского трикотажа textilla.ru