Важное объявление!
У Нас Все раздачи мультитрекерные, при нуле пиров в релизах, можете смело вставать на закачку!
 
Автор Сообщение

HUNTER

Стаж:
4 года 4 месяца
Сообщений:
56790

Репутация: 101

[+] [-]
Вне форума [Профиль] [ЛС]

Сэки-кун – парень за соседней партой / Tonari no Seki-kun
Страна: Япония
Год выпуска: 2014 г.
Жанр: комедия, повседневность
Тип: OVA
Продолжительность: 14 мин.
Режиссер: Муто Юджи
Студия: A Shin-El Animation
Описание: Это рассказ о школьнице Ёкой и парне Сэки, который сидит рядом с ней. На уроках ему некогда слушать учителя, он слишком занят собственными, совершенно невероятными делами – к примеру, собирает детально проработанный макет поля для гольфа, где лунками служат углубления в столе, или разыгрывает настоящее сражение бумажными фигурками для сёги.
Качество: DVDRip
Тип релиза: Без хардсаба
Формат видео: MP4
Релиз/Автор рипа: Ohys-Raws
Видео: H264, 8 bits, 1280x720, 1268 kbps, 23.976 fps
Аудио: AAC, 2ch, 198kbps, 48kHz Язык Японский
Субтитры: ass, отдельным файлом Язык субтитров русский ; Перевод: Vadamas ; Редактор: Beta
Подробные тех. данные
Format : MPEG-4Format profile : Base MediaCodec ID : isomFile size : 145 MiBDuration : 13mn 50sOverall bit rate mode : VariableOverall bit rate : 1 469 Kbps
VideoID : 1Format : AVCFormat/Info : Advanced Video CodecFormat profile : High@L4.1Format settings, CABAC : YesFormat settings, ReFrames : 4 framesCodec ID : avc1Codec ID/Info : Advanced Video CodingDuration : 13mn 50sBit rate : 1 268 KbpsMaximum bit rate : 6 148 KbpsWidth : 1 280 pixelsHeight : 720 pixelsDisplay aspect ratio : 16:9Frame rate mode : ConstantFrame rate : 23.976 fpsColor space : YUVChroma subsampling : 4:2:0Bit depth : 8 bitsScan type : ProgressiveBits/(Pixel*Frame) : 0.057Stream size : 125 MiB (86%)Writing library : x264 core 142 r2431+42 c69a006 tMod [8-bit@4:2:0 X86]Encoding settings : cabac=1 / ref=3 / deblock=1:1:1 / analyse=0x3:0x113 / me=hex / subme=7 / psy=1 / fade_compensate=0.00 / psy_rd=0.40:0.10 / mixed_ref=1 / me_range=16 / chroma_me=1 / trellis=1 / 8x8dct=1 / cqm=0 / deadzone=21,11 / fast_pskip=1 / chroma_qp_offset=-3 / threads=12 / lookahead_threads=2 / sliced_threads=0 / nr=0 / decimate=1 / interlaced=0 / bluray_compat=0 / constrained_intra=0 / fgo=0 / bframes=5 / b_pyramid=2 / b_adapt=1 / b_bias=0 / direct=1 / weightb=1 / open_gop=0 / weightp=2 / keyint=240 / keyint_min=1 / scenecut=40 / intra_refresh=0 / rc_lookahead=40 / rc=crf / mbtree=1 / crf=20.0000 / qcomp=0.60 / qpmin=0:0:0 / qpmax=69:69:69 / qpstep=4 / ip_ratio=1.40 / aq=1:0.60 / aq-sensitivity=10.00 / aq-factor=1.00:1.00:1.00 / aq2=0 / aq3=0Color primaries : BT.709Transfer characteristics : BT.709Matrix coefficients : BT.709
AudioID : 2Format : AACFormat/Info : Advanced Audio CodecFormat profile : LCCodec ID : 40Duration : 13mn 50sBit rate mode : VariableBit rate : 198 KbpsMaximum bit rate : 256 KbpsChannel count : 2 channelsChannel positions : Front: L RSampling rate : 48.0 KHzCompression mode : LossyDelay relative to video : 83msStream size : 19.6 MiB (13%)Language : Japanese
Список эпизодов
1. Field trip
2. Snow playing
Скриншоты

_________________
Показать сообщения:    

Текущее время: Сегодня 10:36

Часовой пояс: GMT



Вы не можете начинать темы
Вы не можете отвечать на сообщения
Вы не можете редактировать свои сообщения
Вы не можете удалять свои сообщения
Вы не можете голосовать в опросах
Вы не можете прикреплять файлы к сообщениям
Вы не можете скачивать файлы