Важное объявление!
У Нас Все раздачи мультитрекерные, при нуле пиров в релизах, можете смело вставать на закачку!
 
Автор Сообщение

HUNTER

Стаж:
4 года 4 месяца
Сообщений:
56853

Репутация: 101

[+] [-]
Вне форума [Профиль] [ЛС]

Сын Франкенштейна / Son of Frankenstein
Страна: США
Жанр: ужасы, фантастика, драма
Год выпуска: 1939
Продолжительность: 01:39:12
Перевод: Профессиональный (двухголосый закадровый) - DVD Classic
Cубтитры: английские
Оригинальная аудиодорожка: английский
Режиссер: Роулэнд В. Ли / Rowland V. Lee
В ролях: Бэзил Рэтбоун, Борис Карлофф, Бела Лугоши, Лайонел Этуилл, Жозефин Хатчинсон, Донни Данаган, Эмма Данн, Эдгар Нортон, Перри Ивинс, Лоуренс Грант
Описание: Сын барона Франкенштейна вместе с женой и сыном возвращается в деревню своих предков, чтобы унаследовать дом своего отца. Их встречают неприветливо, так как жители деревни никак не могут забыть монстра, созданного бароном. Прибывший наследник встречает Игоря, пастуха, приговоренного к смерти за кражу трупов. Тот приводит сына барона в семейный склеп, где лежит монстр, находящийся в коме. Одновременно терзаемый воспоминаниями о невероятных опытах своего отца и одолеваемый желанием реабилитировать его как ученого, сын оживляет монстра и возвращает ему былые силы…
Доп. информация:


За дорожку с переводом спасибо kritasanko
Сэмпл: http://sendfile.su/1042511
Тип релиза: WEB-DL 720p
Контейнер: MKV
Видео: AVC, 964x720, L3.1, 23.976fps, 4051kbps
Аудио 1: Russian: AC3, 48000Hz, 2ch, 192kbps
Аудио 2: English: AC3, 48000Hz, 2ch, 192kbps - DVD
Аудио 3: English: AAC, 48000Hz, 2ch, 153kbps - WEB-DL
Формат субтитров: softsub (SRT)

MediaInfo

Общее
Уникальный идентификатор : 210644929529416512996772556210496059143 (0x9E78BCDC9EE4194C9305E9D788B3B707)
Полное имя : T:\Son of Frankenstein (WEB-DL 720p).mkv
Формат : Matroska
Версия формата : Version 4 / Version 2
Размер файла : 3,18 Гбайт
Продолжительность : 1 ч. 39 м.
Общий поток : 4588 Кбит/сек
Дата кодирования : UTC 2014-10-31 16:30:02
Программа кодирования : mkvmerge v7.1.0 ('Good Love') 32bit built on Jul 27 2014 12:59:18
Библиотека кодирования : libebml v1.3.0 + libmatroska v1.4.1
DURATION : 01:36:24.878000000
NUMBER_OF_FRAMES : 1325
NUMBER_OF_BYTES : 41737
_STATISTICS_WRITING_APP : mkvmerge v7.1.0 ('Good Love') 32bit built on Jul 27 2014 12:59:18
_STATISTICS_WRITING_DATE_UTC : 2014-10-31 16:30:02
_STATISTICS_TAGS : BPS DURATION NUMBER_OF_FRAMES NUMBER_OF_BYTES
Видео
Идентификатор : 1
Формат : AVC
Формат/Информация : Advanced Video Codec
Профиль формата : Main@L3.1
Параметр CABAC формата : Нет
Параметр ReFrames формата : 2 кадра
Идентификатор кодека : V_MPEG4/ISO/AVC
Продолжительность : 1 ч. 39 м.
Ширина : 964 пикселя
Высота : 720 пикселей
Соотношение сторон : 4:3
Режим частоты кадров : Постоянный
Частота кадров : 23,976 кадра/сек
Цветовое пространство : YUV
Субдискретизация насыщенности : 4:2:0
Битовая глубина : 8 бит
Тип развёртки : Прогрессивная
Язык : English
Default : Да
Forced : Нет
Основные цвета : BT.709
Характеристики трансфера : BT.709
Коэффициенты матрицы : BT.709
Аудио #1
Идентификатор : 2
Формат : AC-3
Формат/Информация : Audio Coding 3
Расширение режима : CM (complete main)
Параметр Endianness формата : Big
Идентификатор кодека : A_AC3
Продолжительность : 1 ч. 39 м.
Вид битрейта : Постоянный
Битрейт : 192 Кбит/сек
Каналы : 2 канала
Расположение каналов : Front: L R
Частота : 48,0 КГц
Битовая глубина : 16 бит
Метод сжатия : С потерями
Размер потока : 136 Мбайт (4%)
Заголовок : DVD Classic
Язык : Russian
Default : Да
Forced : Нет
Аудио #2
Идентификатор : 3
Формат : AC-3
Формат/Информация : Audio Coding 3
Расширение режима : CM (complete main)
Параметр Endianness формата : Big
Идентификатор кодека : A_AC3
Продолжительность : 1 ч. 39 м.
Вид битрейта : Постоянный
Битрейт : 192 Кбит/сек
Каналы : 2 канала
Расположение каналов : Front: L R
Частота : 48,0 КГц
Битовая глубина : 16 бит
Метод сжатия : С потерями
Размер потока : 136 Мбайт (4%)
Заголовок : DVD
Язык : English
Default : Нет
Forced : Нет
Аудио #3
Идентификатор : 4
Формат : AAC
Формат/Информация : Advanced Audio Codec
Профиль формата : LC
Идентификатор кодека : A_AAC
Продолжительность : 1 ч. 39 м.
Каналы : 2 канала
Расположение каналов : Front: L R
Частота : 48,0 КГц
Метод сжатия : С потерями
Заголовок : WEB-DL
Язык : English
Default : Нет
Forced : Нет
Текст
Идентификатор : 5
Формат : UTF-8
Идентификатор кодека : S_TEXT/UTF8
Идентификатор кодека/Информация : UTF-8 Plain Text
Язык : English
Default : Нет
Forced : Нет
Меню
00:00:00.000 : en:Main Titles
00:01:31.000 : en:Another Frankenstein
00:11:32.000 : en:Father's Letter
00:14:53.000 : en:Inspector Krogh
00:24:07.000 : en:The Dead Man
00:28:25.000 : en:Ygor's Friend
00:34:28.000 : en:Subject for Analysis
00:40:27.000 : en:Ygor's Inquisition
00:43:15.000 : en:Back to Life?
00:51:16.000 : en:Peter's Giant
00:55:38.000 : en:Meet the Monster
01:03:04.000 : en:Death in the Village
01:14:00.000 : en:Krogh Investigates
01:23:22.000 : en:A Game of Wits
01:27:33.000 : en:The Last of Ygor
01:32:30.000 : en:The Monster's Anguish
01:35:52.000 : en:To Save Peter
01:38:54.000 : en:End Titles

Скриншоты


_________________
Показать сообщения:    

Текущее время: Сегодня 13:41

Часовой пояс: GMT



Вы не можете начинать темы
Вы не можете отвечать на сообщения
Вы не можете редактировать свои сообщения
Вы не можете удалять свои сообщения
Вы не можете голосовать в опросах
Вы не можете прикреплять файлы к сообщениям
Вы не можете скачивать файлы
Наши партнеры: интернет магазин Ивановского трикотажа textilla.ru