Важное объявление!
У Нас Все раздачи мультитрекерные, при нуле пиров в релизах, можете смело вставать на закачку!
 
Автор Сообщение

HUNTER

Стаж:
4 года 4 месяца
Сообщений:
56719

Репутация: 101

[+] [-]
Вне форума [Профиль] [ЛС]

Сын Иисуса / Jesus' Son
Страна: США, Канада
Студия: Evenstar Films
Жанр: Драма, Комедия
Год выпуска: 1999
Продолжительность: 01:47:27
Перевод: Профессиональный (многоголосый закадровый)
Cубтитры: английские
Оригинальная аудиодорожка: английский
Режиссер: Элисон Маклин / Alison Maclean
В ролях: Билли Крудап, Саманта Мортон, Майкл Шеннон, Дэнис Лири, Джек Блэк, Деннис Хоппер, Холли Хантер
Описание: Блуждающий в своей хаотической жизни от одной неудачи к другой, главный герой горит сердечным желанием помочь всем вокруг себя, но постоянно терпит фиаско. И вот, путешествуя от полей Айовы через быстроменяющийся Чикаго к солнечному Фениксу, он обнаруживает, что маленькие радости от случайных встреч и есть то, к чему он бессознательно стремился и искал.
Сэмпл: http://sendfile.su/1140705
Тип релиза: WEB-DL 720p
Контейнер: MKV
Видео: MPEG4 Video (H264) 1280x718 23.976fps 3943kbps
Аудио RUS: Dolby AC3 48kHz 5.1ch 448kbps
Аудио ENG: Dolby AC3 48kHz 5.1ch 384kbps
Формат субтитров: softsub (SRT)

MediaInfo

General
Unique ID : 235187858054581464093534739042339243583 (0xB0EF88A9A17F381B9179277A907DC63F)
Complete name : Jesus.Son.1999.720p.mkv
Format : Matroska
Format version : Version 4 / Version 2
File size : 3.66 GiB
Duration : 1h 47mn
Overall bit rate : 4 872 Kbps
Movie name : Jesus.Son.1999.720p
Encoded date : UTC 2015-07-26 17:05:09
Writing application : mkvmerge v7.3.0 ('Nouages') 64bit built on Oct 22 2014 18:53:34
Writing library : libebml v1.3.0 + libmatroska v1.4.1
DURATION : 01:46:08.482000000
NUMBER_OF_FRAMES : 1539
NUMBER_OF_BYTES : 41236
_STATISTICS_WRITING_APP : mkvmerge v7.3.0 ('Nouages') 64bit built on Oct 22 2014 18:53:34
_STATISTICS_WRITING_DATE_UTC : 2015-07-26 17:05:09
_STATISTICS_TAGS : BPS DURATION NUMBER_OF_FRAMES NUMBER_OF_BYTES
Video
ID : 1
Format : AVC
Format/Info : Advanced Video Codec
Format profile : High@L3.1
Format settings, CABAC : No
Format settings, ReFrames : 2 frames
Codec ID : V_MPEG4/ISO/AVC
Duration : 1h 47mn
Bit rate : 3 943 Kbps
Width : 1 280 pixels
Height : 718 pixels
Display aspect ratio : 16:9
Frame rate mode : Constant
Frame rate : 23.976 fps
Color space : YUV
Chroma subsampling : 4:2:0
Bit depth : 8 bits
Scan type : Progressive
Bits/(Pixel*Frame) : 0.179
Stream size : 2.96 GiB (81%)
Title : Jesus.Son.1999.720p
Default : Yes
Forced : No
Color primaries : BT.709
Transfer characteristics : BT.709
Matrix coefficients : BT.709
Audio #1
ID : 2
Format : AC-3
Format/Info : Audio Coding 3
Mode extension : CM (complete main)
Format settings, Endianness : Big
Codec ID : A_AC3
Duration : 1h 47mn
Bit rate mode : Constant
Bit rate : 448 Kbps
Channel(s) : 6 channels
Channel positions : Front: L C R, Side: L R, LFE
Sampling rate : 48.0 KHz
Bit depth : 16 bits
Compression mode : Lossy
Stream size : 344 MiB (9%)
Language : Russian
Default : Yes
Forced : No
Audio #2
ID : 3
Format : AC-3
Format/Info : Audio Coding 3
Mode extension : CM (complete main)
Format settings, Endianness : Big
Codec ID : A_AC3
Duration : 1h 47mn
Bit rate mode : Constant
Bit rate : 384 Kbps
Channel(s) : 6 channels
Channel positions : Front: L C R, Side: L R, LFE
Sampling rate : 48.0 KHz
Bit depth : 16 bits
Compression mode : Lossy
Stream size : 295 MiB (8%)
Language : English
Default : No
Forced : No
Text
ID : 4
Format : UTF-8
Codec ID : S_TEXT/UTF8
Codec ID/Info : UTF-8 Plain Text
Language : English
Default : No
Forced : No
Menu
00:00:00.000 : en:Chapter 1
00:04:54.000 : en:Chapter 2
00:11:49.000 : en:Chapter 3
00:21:33.000 : en:Chapter 4
00:28:38.000 : en:Chapter 5
00:39:42.000 : en:Chapter 6
00:46:31.000 : en:Chapter 7
00:58:25.000 : en:Chapter 8
01:08:52.000 : en:Chapter 9
01:15:45.000 : en:Chapter 10
01:23:25.000 : en:Chapter 11
01:34:24.000 : en:Chapter 12
01:43:08.000 : en:Chapter 13

_________________
Показать сообщения:    

Текущее время: Сегодня 03:09

Часовой пояс: GMT



Вы не можете начинать темы
Вы не можете отвечать на сообщения
Вы не можете редактировать свои сообщения
Вы не можете удалять свои сообщения
Вы не можете голосовать в опросах
Вы не можете прикреплять файлы к сообщениям
Вы не можете скачивать файлы