Важное объявление!
У Нас Все раздачи мультитрекерные, при нуле пиров в релизах, можете смело вставать на закачку!
 
Автор Сообщение

HUNTER

Стаж:
4 года 4 месяца
Сообщений:
56790

Репутация: 101

[+] [-]
Вне форума [Профиль] [ЛС]


Сын Бэтмена
Son of Batman
«Vengeance runs in the blood»
-
Год выпуска: 2014
Страна: США
Жанр: мультфильм, фэнтези, боевик, драма, криминал, детектив, приключения, семейный
Продолжительность: 01:14:09
Перевод:
Профессиональный (Многоголосый закадровый) - SDI Media
Любительский (Многоголосый закадровый) - Kapets's Studios
русские субтитры: есть-Режиссёр: Этан Сполдинг : Ethan Spaulding-Роли озвучивали: Джейсон О’Мара, Томас Гибсон, Морена Баккарин, Джанкарло Эспозито, Дэвид МакКаллум, Ксандер Беркли, Шон Маэр, Фред Татаскьор, Брюс Томас, Стюарт Аллан-ОписаниеБэтмен узнал, что Талия аль Гул скрыла существование его сына Дэмиена, который вырос под присмотром Ра’с аль Гула и Лиги убийц.- релиз: -- Запись перевода SDI Media с т/к TV1000 Megahit HD - xfiles.
- Огромное спасибо dartrody'у, за предоставление русских субтитров от Dakota Family Translators!
- Огромное спасибо KapetsTM'у, за предоставление чистого голоса Kapets's Studios!-Качество: BDRip-AVC BDRemux 1080p
Формат: MKV
Видео кодек: AVC
Видео: AVC 1967 Kbps 1152 x 648 (1.778) at 23.976 fps
Аудио #1: [RUS] 48 kHz, AC3 Dolby Digital, 2/0 (L,R) ch, ~192 kbps kbps - MVO SDI Media
Аудио #2: [RUS] AC-3 448 Kbps 6 channels, 48.0 KHz kbps - MVO Kapets's Studios
Аудио #3: [ENG] AC-3 448 Kbps 6 channels, 48.0 KHz kbps kbps -
субтитры: русские - Dakota Family Translators (full), английские (SDH)
навигация по главам: 8 глав

Kapets's Studios

Роли озвучивали:
TeT_Rec, Katrin Marin, kapets

MediaInfo | Log

Log
x264 [info]: frame I:1186 Avg QP: 9.97 size: 88484
x264 [info]: frame P:27085 Avg QP:11.58 size: 21893
x264 [info]: frame B:78406 Avg QP:12.21 size: 5480
x264 [info]: consecutive B-frames: 3.5% 7.0% 5.7% 50.9% 6.4% 8.3% 2.7% 10.9% 0.9% 0.9% 0.5% 1.7% 0.5%
x264 [info]: mb I I16..4: 16.4% 50.1% 33.5%
x264 [info]: mb P I16..4: 2.2% 9.1% 4.1% P16..4: 24.3% 21.8% 9.5% 2.3% 0.4% skip:26.3%
x264 [info]: mb B I16..4: 0.5% 1.1% 0.4% B16..8: 25.8% 12.9% 2.2% direct: 2.7% skip:54.2% L0:50.0% L1:45.6% BI: 4.4%
x264 [info]: 8x8 transform intra:56.5% inter:38.6%
x264 [info]: direct mvs spatial:100.0% temporal:0.0%
x264 [info]: coded y,uvDC,uvAC intra: 63.7% 69.2% 62.9% inter: 8.8% 8.3% 4.8%
x264 [info]: i16 v,h,dc,p: 55% 17% 9% 19%
x264 [info]: i8 v,h,dc,ddl,ddr,vr,hd,vl,hu: 12% 14% 25% 7% 7% 7% 8% 8% 11%
x264 [info]: i4 v,h,dc,ddl,ddr,vr,hd,vl,hu: 16% 14% 22% 7% 9% 8% 8% 7% 9%
x264 [info]: i8c dc,h,v,p: 35% 40% 15% 9%
x264 [info]: Weighted P-Frames: Y:2.3% UV:2.0%
x264 [info]: ref P L0: 53.0% 2.7% 15.5% 7.3% 5.2% 4.7% 3.6% 2.4% 1.9% 1.9% 1.6% 0.2% 0.0%
x264 [info]: ref B L0: 64.9% 13.4% 7.4% 4.0% 3.1% 2.5% 2.1% 1.4% 0.9% 0.4%
x264 [info]: ref B L1: 91.7% 8.3%
x264 [info]: kb/s:2027.41
x264 [total]: encoded 106677 frames, 11.36 fps, 2027.41 kb/s, duration 2:36:31.56
Format : Matroska
Format version : Version 4 / Version 2
File size : 1.62 GiB
Duration : 1h 14mn
Overall bit rate : 3 117 Kbps
Encoded date : UTC 2015-11-12 09:27:13
Writing application : mkvmerge v6.7.0 ('Back to the Ground') 32bit built on Jan 8 2014 15:03:17
Writing library : libebml v1.3.0 + libmatroska v1.4.1
Video
ID : 1
Format : AVC
Format/Info : Advanced Video Codec
Format profile : High@L4.1
Format settings, CABAC : Yes
Format settings, ReFrames : 11 frames
Codec ID : V_MPEG4/ISO/AVC
Duration : 1h 14mn
Bit rate : 1 967 Kbps
Width : 1 152 pixels
Height : 648 pixels
Display aspect ratio : 16:9
Frame rate mode : Constant
Frame rate : 23.976 fps
Color space : YUV
Chroma subsampling : 4:2:0
Bit depth : 8 bits
Scan type : Progressive
Bits/(Pixel*Frame) : 0.110
Stream size : 1.02 GiB (63%)
Title : Son of Batman (2014) [rutracker.org]
Writing library : x264 core 148 r2579kMod 73ae2d1
Encoding settings : cabac=1 / ref=11 / deblock=1:-2:-1 / analyse=0x3:0x133 / me=umh / subme=11 / psy=1 / fade_compensate=0.00 / psy_rd=1.00:0.05 / mixed_ref=1 / me_range=32 / chroma_me=1 / trellis=2 / 8x8dct=1 / cqm=0 / deadzone=21,11 / fast_pskip=0 / chroma_qp_offset=-3 / threads=12 / lookahead_threads=3 / sliced_threads=0 / nr=0 / decimate=1 / interlaced=0 / bluray_compat=0 / constrained_intra=0 / fgo=0 / bframes=12 / b_pyramid=2 / b_adapt=2 / b_bias=0 / direct=3 / weightb=1 / open_gop=0 / weightp=2 / keyint=250 / keyint_min=23 / scenecut=40 / intra_refresh=0 / rc_lookahead=60 / rc=crf / mbtree=0 / crf=17.1000 / qcomp=0.60 / qpmin=0 / qpmax=69 / qpstep=4 / vbv_maxrate=50000 / vbv_bufsize=62500 / crf_max=0.0 / nal_hrd=none / filler=0 / ip_ratio=1.40 / pb_ratio=1.30 / aq=3:0.90
Language : English
Default : Yes
Forced : No
Audio #1
ID : 2
Format : AC-3
Format/Info : Audio Coding 3
Mode extension : CM (complete main)
Format settings, Endianness : Big
Codec ID : A_AC3
Duration : 1h 14mn
Bit rate mode : Constant
Bit rate : 192 Kbps
Channel(s) : 2 channels
Channel positions : Front: L R
Sampling rate : 48.0 KHz
Compression mode : Lossy
Stream size : 102 MiB (6%)
Title : MVO SDI Media
Language : Russian
Default : Yes
Forced : No
Audio #2
ID : 3
Format : AC-3
Format/Info : Audio Coding 3
Mode extension : CM (complete main)
Format settings, Endianness : Big
Codec ID : A_AC3
Duration : 1h 14mn
Bit rate mode : Constant
Bit rate : 448 Kbps
Channel(s) : 6 channels
Channel positions : Front: L C R, Side: L R, LFE
Sampling rate : 48.0 KHz
Compression mode : Lossy
Stream size : 238 MiB (14%)
Title : MVO Kapets's Studios
Language : Russian
Default : No
Forced : No
Audio #3
ID : 4
Format : AC-3
Format/Info : Audio Coding 3
Mode extension : CM (complete main)
Format settings, Endianness : Big
Codec ID : A_AC3
Duration : 1h 14mn
Bit rate mode : Constant
Bit rate : 448 Kbps
Channel(s) : 6 channels
Channel positions : Front: L C R, Side: L R, LFE
Sampling rate : 48.0 KHz
Compression mode : Lossy
Stream size : 238 MiB (14%)
Title : Original
Language : English
Default : No
Forced : No
Text #1
ID : 5
Format : UTF-8
Codec ID : S_TEXT/UTF8
Codec ID/Info : UTF-8 Plain Text
Title : Full [Dakota Family Translators]
Language : Russian
Default : No
Forced : No
Text #2
ID : 6
Format : UTF-8
Codec ID : S_TEXT/UTF8
Codec ID/Info : UTF-8 Plain Text
Title : SDH
Language : English
Default : No
Forced : No
Menu
00:00:00.000 : en:00:00:00.000
00:10:51.359 : en:00:10:51.359
00:20:34.608 : en:00:20:34.608
00:28:57.736 : en:00:28:57.736
00:40:38.394 : en:00:40:38.394
00:50:18.015 : en:00:50:18.015
01:00:21.618 : en:01:00:21.618
01:09:47.642 : en:01:09:47.642

Скриншоты





_________________
Показать сообщения:    

Текущее время: Сегодня 17:04

Часовой пояс: GMT



Вы не можете начинать темы
Вы не можете отвечать на сообщения
Вы не можете редактировать свои сообщения
Вы не можете удалять свои сообщения
Вы не можете голосовать в опросах
Вы не можете прикреплять файлы к сообщениям
Вы не можете скачивать файлы