Важное объявление!
У Нас Все раздачи мультитрекерные, при нуле пиров в релизах, можете смело вставать на закачку!
 
Автор Сообщение

HUNTER

Стаж:
4 года 4 месяца
Сообщений:
56772

Репутация: 101

[+] [-]
Вне форума [Профиль] [ЛС]

Сын Бэтмена / Son of Batman
Страна: США
Жанр: детектив
Продолжительность: 01:14:10
Год выпуска: 2014
Перевод: Любительский (многоголосый закадровый) DuBDraG ProJECT
Русские субтитры: нет
Режиссёр: Этан Сполдинг / Ethan Spaulding
Роли озвучивали: Джейсон О’Мара, Томас Гибсон, Морена Баккарин, Джанкарло Эспозито, Дэвид МакКаллум, Ксандер Беркли, Шон Маэр, Фред Татаскьор, Брюс Томас, Стюарт Аллан
Описание: Бэтмен узнает, что он имеет наследника, подростка сына, тайно посланного террористической группой Лига Убийц.
Качество: HDRip
Формат: AVI
Видео: DivX, 1984 Кбит/с, 704x400, 23,976 кадра/сек
Аудио: Русский (AC3, 2 ch, 192 Кбит/с, 48,0 КГц)
Аудио 2: Английский (АС3 6 ch, 448 Кбит/с, 48,0 КГц)
Субтитры: отсутствуют
Сэмпл
http://multi-up.com/969872
Подробные технические данные
I:\Сын Бэтмена\Son.Of.Batman.2014.HDRip.avi General Complete name : I:\Сын Бэтмена\Son.Of.Batman.2014.HDRip.avi Format : AVI Format/Info : Audio Video Interleave File size : 1.37 GiB Duration : 1h 14mn Overall bit rate : 2 638 Kbps Movie name : Son.Of.Batman.2014.HDRip Director : LPPI Writing application : VirtualDubMod 1.5.10.2 (build 2540/release) Comment : СПАМ Video #0 ID : 0 Format : MPEG-4 Visual Format profile : Advanced Simple@L5 Format settings, BVOP : 1 Format settings, QPel : No Format settings, GMC : No warppoints Format settings, Matrix : Default (MPEG) Codec ID : DX50 Codec ID/Hint : DivX 5 Duration : 1h 14mn Bit rate : 1 984 Kbps Width : 704 pixels Height : 400 pixels Display aspect ratio : 16:9 Frame rate : 23.976 fps Color space : YUV Chroma subsampling : 4:2:0 Bit depth : 8 bits Scan type : Progressive Compression mode : Lossy Bits/(Pixel*Frame) : 0.294 Stream size : 1.03 GiB (75%) Writing library : XviD 1.2.1 (UTC 2008-12-04) Audio #1 ID : 1 Format : AC-3 Format/Info : Audio Coding 3 Mode extension : CM (complete main) Format settings, Endianness : Big Codec ID : 2000 Duration : 1h 14mn Bit rate mode : Constant Bit rate : 192 Kbps Channel count : 2 channels Channel positions : Front: L R Sampling rate : 48.0 KHz Bit depth : 16 bits Compression mode : Lossy Stream size : 102 MiB (7%) Alignment : Split accross interleaves Interleave, duration : 42 ms (1.00 video frame) Interleave, preload duration : 500 ms Audio #2 ID : 2 Format : AC-3 Format/Info : Audio Coding 3 Mode extension : CM (complete main) Format settings, Endianness : Big Codec ID : 2000 Duration : 1h 14mn Bit rate mode : Constant Bit rate : 448 Kbps Channel count : 6 channels Channel positions : Front: L C R, Side: L R, LFE Sampling rate : 48.0 KHz Bit depth : 16 bits Compression mode : Lossy Stream size : 238 MiB (17%) Alignment : Split accross interleaves Interleave, duration : 42 ms (1.00 video frame) Interleave, preload duration : 500 ms
Скриншоты

_________________
Показать сообщения:    

Текущее время: Сегодня 17:22

Часовой пояс: GMT



Вы не можете начинать темы
Вы не можете отвечать на сообщения
Вы не можете редактировать свои сообщения
Вы не можете удалять свои сообщения
Вы не можете голосовать в опросах
Вы не можете прикреплять файлы к сообщениям
Вы не можете скачивать файлы