Важное объявление!
У Нас Все раздачи мультитрекерные, при нуле пиров в релизах, можете смело вставать на закачку!
 
Автор Сообщение

димитри37

Стаж:
3 года 9 месяцев
Сообщений:
1237

Репутация: 127

[+] [-]
Вне форума [Профиль] [ЛС]

Счастливые дни
Страна: СССР
Жанр: драма
Год выпуска: 1991
Продолжительность: 01:21:35
Перевод: не требуется
Субтитры: нет
Режиссер: Алексей Балабанов
В ролях: Виктор Сухоруков, Анжелика Неволина, Евгений Меркурьев, Георгий Тейх, Николай Лавров, Аркадий Шароградский, Алексей Оленников
Описание: Пустынный, будто вымерший Петербург вне времени и вне эпох — провалы окон облупившихся старинных домов, провалы дверей трамваев без пассажиров, грохочущих неизвестно куда по совершенно безлюдным улицам. По этим улицам, мимо этих домов и этих трамваев, одиноко бредет ОН — человек без имени, без памяти, без прошлого и без друзей.
Те редкие люди, с кем пересекся его путь, называют его по-разному: одни — Сергеем Сергеевичем, другие — Петром, а хрупкая белокурая девушка, подсевшая к нему однажды на заснеженном кладбище, называет его Борей и говорит, что ждет от него ребенка. Все чего-то хотят от него, он же хочет лишь одного — найти себе комнату, где просто смог бы жить. Но и эта такая простая цель оказывается такой недостижимой…

Качество видео: DVDRip (Исходник: DVD5)
Формат видео: AVI
Видео: 704x528 (1.33:1), 25 fps, XviD build 73 ~2349 kbps avg, 0.25 bit/pixel
Аудио: 48 kHz, AC3 Dolby Digital, 2/0 (L,R) ch, ~192 kbps

MediaInfo

Общее
Полное имя : D:\Фильмы на раздачу\Счастливые дни (1991) DVDRip 1,45.avi
Формат : AVI
Формат/Информация : Audio Video Interleave
Размер файла : 1,45 Гбайт
Продолжительность : 1 ч. 21 м.
Общий поток : 2551 Кбит/сек
Программа кодирования : VirtualDubMod 1.5.10.3 | www.virtualdub-fr.org || (build 2550/release)
Библиотека кодирования : VirtualDubMod build 2550/release
Видео
Идентификатор : 0
Формат : MPEG-4 Visual
Профиль формата : Advanced Simple@L5
Параметр BVOP формата : 1
Параметр QPel формата : Нет
Параметр GMC формата : Без точки перехода
Параметр матрицы формата : Выборочная
Идентификатор кодека : XVID
Идентификатор кодека/Подсказка : XviD
Продолжительность : 1 ч. 21 м.
Битрейт : 2350 Кбит/сек
Ширина : 704 пикселя
Высота : 528 пикселей
Соотношение сторон : 4:3
Частота кадров : 25,000 кадров/сек
Цветовое пространство : YUV
Субдискретизация насыщенности : 4:2:0
Битовая глубина : 8 бит
Тип развёртки : Прогрессивная
Метод сжатия : С потерями
Бит/(Пиксели*Кадры) : 0.253
Размер потока : 1,34 Гбайт (92%)
Библиотека кодирования : XviD 73
Аудио
Идентификатор : 1
Формат : AC-3
Формат/Информация : Audio Coding 3
Расширение режима : CM (complete main)
Параметр Endianness формата : Big
Идентификатор кодека : 2000
Продолжительность : 1 ч. 21 м.
Вид битрейта : Постоянный
Битрейт : 192 Кбит/сек
Каналы : 2 канала
Расположение каналов : Front: L R
Частота : 48,0 КГц
Битовая глубина : 16 бит
Метод сжатия : С потерями
Размер потока : 112 Мбайт (8%)
Выравнивание : Разделение по промежуткам
Продолжительность промежутка : 40 мс. (1,00 видеокадр)
Время предзагрузки промежутка : 500 мс.

Скриншоты

-
Показать сообщения:    

Текущее время: Сегодня 20:15

Часовой пояс: GMT



Вы не можете начинать темы
Вы не можете отвечать на сообщения
Вы не можете редактировать свои сообщения
Вы не можете удалять свои сообщения
Вы не можете голосовать в опросах
Вы не можете прикреплять файлы к сообщениям
Вы не можете скачивать файлы