Важное объявление!
У Нас Все раздачи мультитрекерные, при нуле пиров в релизах, можете смело вставать на закачку!
 
Автор Сообщение

димитри37

Стаж:
3 года 8 месяцев
Сообщений:
1237

Репутация: 127

[+] [-]
Вне форума [Профиль] [ЛС]

Счастливы вместе. Сезон 3
Год выпуска: 2008
Производство: Продюсерский центр «ЛЕАН-М»
Жанр: Комедийный телесериал (ситком)
Продолжительность: ~20 минут
Режиссёр: Александр Ануров, Елена Котунова, Роман Карапетян
В ролях: Виктор Логинов, Наталья Бочкарёва, Дарья Сагалова, Александр Якин, Юлия Захарова, Павел Савинков
Описание: Маленькая квартира, двое непослушных детей, прожорливая собака и бесконечный ремонт. Гена любит поесть и мало зарабатывает, Даша не умеет готовить и обожает тратить деньги. Гена хочет смотреть футбол, Даша - секса, но и то, и другое им мешают делать дети.
Семейство Букиных - это Гена, Даша, их дети Светка и Ромка и пес Барон. Квартирка в Екатеринбурге, в которой они давно затеяли ремонт, да так и не доделали, зато заняли чердак - под спальню и детские.
Гена каждый день трогает за ноги женщин - он работает в обувном магазине. Зарплату Гены потихоньку таскают из его кошелька все домочадцы, о чем он даже не догадывается. Сама Даша никогда не работала - ни снаружи, ни внутри дома. Она боится пылесоса и не знает, зачем нужна плита. Ни разу в жизни ей не удалось приготовить утку в апельсинах, поэтому на ужин Гена получает жену в пеньюаре.
Качество: DVB
Формат: MPEG-PS
Видео кодек: MPEG2
Аудио кодек: MP2
Видео: MPEG2 Video 720x576 (4:3) 25.00fps ~ 4300 Kbps
Аудио: MPEG Audio 48000Hz mono 192 Kbps

MI

Общее
Полное имя : E:\MPEG\Счастливы вместе.s03.2008.DVB\197. Жан-Клод ван Даша.mpg
Формат : MPEG-PS
Размер файла : 751 Мбайт
Продолжительность : 22 м.
Режим общего битрейта : Переменный
Общий поток : 4636 Кбит/сек
Видео
Идентификатор : 224 (0xE0)
Формат : MPEG Video
Версия формата : Version 2
Профиль формата : Main@Main
Параметр BVOP формата : Да
Параметр матрицы формата : Выборочная
Параметр GOP формата : M=3, N=21
Продолжительность : 22 м.
Вид битрейта : Переменный
Битрейт : 4351 Кбит/сек
Максимальный битрейт : 15,0 Мбит/сек
Ширина : 720 пикселей
Высота : 576 пикселей
Соотношение сторон : 4:3
Частота кадров : 25,000 кадров/сек
Стандарт вещания : PAL
Цветовое пространство : YUV
Субдискретизация насыщенности : 4:2:0
Битовая глубина : 8 бит
Тип развёртки : Чересстрочная
Порядок развёртки : Верхнее поле первое
Метод сжатия : С потерями
Бит/(Пиксели*Кадры) : 0.420
Размер потока : 705 Мбайт (94%)
Аудио
Идентификатор : 192 (0xC0)
Формат : MPEG Audio
Версия формата : Version 1
Профиль формата : Layer 2
Продолжительность : 22 м.
Вид битрейта : Постоянный
Битрейт : 192 Кбит/сек
Каналы : 1 канал
Частота : 48,0 КГц
Метод сжатия : С потерями
Размер потока : 31,1 Мбайт (4%)

Скриншоты

Источник:
Показать сообщения:    

Текущее время: Сегодня 18:41

Часовой пояс: GMT



Вы не можете начинать темы
Вы не можете отвечать на сообщения
Вы не можете редактировать свои сообщения
Вы не можете удалять свои сообщения
Вы не можете голосовать в опросах
Вы не можете прикреплять файлы к сообщениям
Вы не можете скачивать файлы