Важное объявление!
У Нас Все раздачи мультитрекерные, при нуле пиров в релизах, можете смело вставать на закачку!
 
Автор Сообщение

димитри37

Стаж:
3 года 8 месяцев
Сообщений:
1237

Репутация: 127

[+] [-]
Вне форума [Профиль] [ЛС]

Счастлива до безумия / Sykt lykkelig / Happy, Happy
Страна: Норвегия
Жанр: драма, комедия
Год выпуска: 2010
Продолжительность: 01:28:01
Перевод: Профессиональный (двухголосый закадровый) студия NLS
Cубтитры: нет (но ТУТ можно разжиться сабами)
Оригинальная аудиодорожка: норвежский
Режиссер: Энн Севитски / Anne Sewitsky
В ролях: Агнес Киттелсен /Agnes Kittelsen/, Хенрик Рафаелсен /Henrik Rafaelsen/, Йоахим Рафаелсен /Joachim Rafaelsen/, Майбритт Саэренс /Maibritt Saerens/, Оскар Хернес Брандсё /Oskar Hern�s Brands�/, Рам Шихаб Эбеди /Ram Shihab Ebedy/
Описание: Сигве и Элизабет переезжают в небольшой норвежский город, где их соседями будет тоже молодая семья: Эрик и Кая. На первый взгляд, в семьях все благополучно, но очень скоро зрителю открываются проблемы отношений, и он оказывается вовлеченным в переплетения ситуаций смешных и драматичных...
Доп. информация:
ИМДБ
Производство: Maipo Film (Норвегия)
Sample
Качество видео: HDRip
Формат видео: AVI
Видео: Xvid 720x384 24.00fps 1718kbps
Аудио: Dolby AC3 48000Hz stereo 192kbps [Rus]
Аудио 2: Dolby AC3 48000Hz 6ch 448kbps [Nor]

MediaInfo

Complete name : D:\Downloads\Sykt.Lykkelig\Schastliva.do.Bezumiya.2010.HDrip.XviD.Rus-Nor_25KADR.avi
Format : AVI
Format/Info : Audio Video Interleave
File size : 1.46 GiB
Duration : 1h 28mn
Overall bit rate : 2 373 Kbps
Movie name : Schastliva.do.Bezumiya
Original source form/Distributed : Sykt.Lykkelig.2010.720p.BluRay.x264-NOHD
Genre : Drama
Copyright : 25KADR
Comment : DVO (NLS studio)
Video
ID : 0
Format : MPEG-4 Visual
Format profile : Advanced Simple@L5
Format settings, BVOP : Yes
Format settings, QPel : No
Format settings, GMC : No warppoints
Format settings, Matrix : Default (H.263)
Codec ID : XVID
Codec ID/Hint : XviD
Duration : 1h 28mn
Bit rate : 1 719 Kbps
Width : 720 pixels
Height : 384 pixels
Display aspect ratio : 1.875
Frame rate : 24.000 fps
Color space : YUV
Chroma subsampling : 4:2:0
Bit depth : 8 bits
Scan type : Progressive
Bits/(Pixel*Frame) : 0.259
Stream size : 1.06 GiB (72%)
Writing library : XviD 64
Audio #1
ID : 1
Format : AC-3
Format/Info : Audio Coding 3
Mode extension : CM (complete main)
Codec ID : 2000
Duration : 1h 28mn
Bit rate mode : Constant
Bit rate : 192 Kbps
Channel(s) : 2 channels
Channel positions : Front: L R
Sampling rate : 48.0 KHz
Bit depth : 16 bits
Stream size : 121 MiB (8%)
Alignment : Split accross interleaves
Interleave, duration : 42 ms (1.00 video frame)
Interleave, preload duration : 500 ms
Audio #2
ID : 2
Format : AC-3
Format/Info : Audio Coding 3
Mode extension : CM (complete main)
Codec ID : 2000
Duration : 1h 28mn
Bit rate mode : Constant
Bit rate : 448 Kbps
Channel(s) : 6 channels
Channel positions : Front: L C R, Side: L R, LFE
Sampling rate : 48.0 KHz
Bit depth : 16 bits
Stream size : 282 MiB (19%)
Alignment : Split accross interleaves
Interleave, duration : 42 ms (1.00 video frame)
Interleave, preload duration : 500 ms

Скриншоты



Показать сообщения:    

Текущее время: Сегодня 16:18

Часовой пояс: GMT



Вы не можете начинать темы
Вы не можете отвечать на сообщения
Вы не можете редактировать свои сообщения
Вы не можете удалять свои сообщения
Вы не можете голосовать в опросах
Вы не можете прикреплять файлы к сообщениям
Вы не можете скачивать файлы