Важное объявление!
У Нас Все раздачи мультитрекерные, при нуле пиров в релизах, можете смело вставать на закачку!
 
Автор Сообщение

HUNTER

Стаж:
4 года 4 месяца
Сообщений:
56822

Репутация: 101

[+] [-]
Вне форума [Профиль] [ЛС]

-Схватка / The Grey
«Один на один со смертью»-
-Страна: США
Жанр: Драма, Приключения, Триллер
Год выпуска: 2011
Продолжительность: 01:57:32-Перевод: Профессиональный (дублированный)-Cубтитры: Русские, Английские
Оригинальная аудиодорожка: Английская-Режиссер: Джо Карнахан / Joe Carnahan-В ролях: Лиам Нисон, Фрэнк Грилло, Дермот Малруни, Даллас Робертс, Джо Андерсон, Нонсо Анози, Джеймс Бэдж Дэйл, Бен Брэй, Энн Опеншоу, Питер Гиргес-Описание: На Аляске потерпел крушение самолет, и оставшиеся в живых пассажиры оказались в плену безлюдной снежной пустыни, где только стая волков скрашивает пейзаж. Люди хотят выжить любой ценой, и теперь им предстоит смертельная схватка…- - -Тип релиза: BDRip 720p
Контейнер: MKV-Видео: MPEG-4 AVC, 1280x534 (2.40:1), 23.976 fps, ~9000 kbps avg, 0.547 bit/pixel
Аудио 1: 48 kHz, DTS, 3/2 (L,C,R,l,r) + LFE ch, ~1509 kbps avg
Аудио 2: 48 kHz, DTS, 3/2 (L,C,R,l,r) + LFE ch, ~1509 kbps avg-

MediaInfo

Complete name : E:\The Grey (2011) BDRip 720р.mkv
Format : Matroska
Format version : Version 2
File size : 9.85 GiB
Duration : 1h 57mn
Overall bit rate : 12.0 Mbps
Movie name : The Grey (2011) BDRip 720p
Encoded date : UTC 2016-01-17 05:54:55
Writing application : mkvmerge v3.0.0 ('Hang up your Hang-Ups') built on Dec 12 2009 15:20:35
Writing library : libebml v0.7.9 + libmatroska v0.8.1
Cover : Yes
Video
ID : 1
Format : AVC
Format/Info : Advanced Video Codec
Format profile : High@L4.1
Format settings, CABAC : Yes
Format settings, ReFrames : 12 frames
Codec ID : V_MPEG4/ISO/AVC
Duration : 1h 57mn
Bit rate : 8 972 Kbps
Width : 1 280 pixels
Height : 534 pixels
Display aspect ratio : 2.40:1
Frame rate mode : Constant
Frame rate : 23.976 fps
Color space : YUV
Chroma subsampling : 4:2:0
Bit depth : 8 bits
Scan type : Progressive
Bits/(Pixel*Frame) : 0.547
Stream size : 7.17 GiB (73%)
Title : x264
Writing library : x264 core 124 r2197 69a0443
Encoding settings : cabac=1 / ref=12 / deblock=1:-3:-3 / analyse=0x3:0x113 / me=tesa / subme=11 / psy=1 / psy_rd=0.99:0.01 / mixed_ref=1 / me_range=32 / chroma_me=1 / trellis=2 / 8x8dct=1 / cqm=0 / deadzone=21,11 / fast_pskip=0 / chroma_qp_offset=-3 / threads=12 / sliced_threads=0 / nr=0 / decimate=1 / interlaced=0 / bluray_compat=0 / constrained_intra=0 / bframes=6 / b_pyramid=2 / b_adapt=2 / b_bias=0 / direct=3 / weightb=1 / open_gop=0 / weightp=2 / keyint=240 / keyint_min=23 / scenecut=40 / intra_refresh=0 / rc_lookahead=80 / rc=2pass / mbtree=1 / bitrate=8972 / ratetol=1.0 / qcomp=0.65 / qpmin=0 / qpmax=69 / qpstep=4 / cplxblur=20.0 / qblur=0.5 / vbv_maxrate=45000 / vbv_bufsize=43000 / nal_hrd=none / ip_ratio=1.40 / aq=1:0.80 / zones=157565,168610,b=0.1
Language : English
Default : No
Forced : No
Audio #1
ID : 2
Format : DTS
Format/Info : Digital Theater Systems
Mode : 16
Format settings, Endianness : Big
Codec ID : A_DTS
Duration : 1h 57mn
Bit rate mode : Constant
Bit rate : 1 509 Kbps
Channel(s) : 6 channels
Channel positions : Front: L C R, Side: L R, LFE
Sampling rate : 48.0 KHz
Bit depth : 16 bits
Compression mode : Lossy
Stream size : 1.24 GiB (13%)
Title : Дубляж
Language : Russian
Default : Yes
Forced : No
Audio #2
ID : 3
Format : DTS
Format/Info : Digital Theater Systems
Mode : 16
Format settings, Endianness : Big
Codec ID : A_DTS
Duration : 1h 57mn
Bit rate mode : Constant
Bit rate : 1 509 Kbps
Channel(s) : 6 channels
Channel positions : Front: L C R, Side: L R, LFE
Sampling rate : 48.0 KHz
Bit depth : 24 bits
Compression mode : Lossy
Stream size : 1.24 GiB (13%)
Title : Original
Language : English
Default : No
Forced : No
Text #1
ID : 4
Format : UTF-8
Codec ID : S_TEXT/UTF8
Codec ID/Info : UTF-8 Plain Text
Title : Russian
Language : Russian
Default : No
Forced : No
Text #2
ID : 5
Format : UTF-8
Codec ID : S_TEXT/UTF8
Codec ID/Info : UTF-8 Plain Text
Title : English
Language : English
Default : Yes
Forced : No
Menu
00:00:00.000 : en:Chapter 01
00:07:24.861 : en:Chapter 02
00:11:51.836 : en:Chapter 03
00:18:09.505 : en:Chapter 04
00:23:58.728 : en:Chapter 05
00:31:04.821 : en:Chapter 06
00:35:47.603 : en:Chapter 07
00:43:47.666 : en:Chapter 08
00:47:26.426 : en:Chapter 09
00:51:14.654 : en:Chapter 10
00:59:22.433 : en:Chapter 11
01:04:24.068 : en:Chapter 12
01:11:49.471 : en:Chapter 13
01:15:12.299 : en:Chapter 14
01:20:10.931 : en:Chapter 15
01:24:33.693 : en:Chapter 16
01:33:51.334 : en:Chapter 17
01:39:18.661 : en:Chapter 18
01:41:28.373 : en:Chapter 19
01:49:40.031 : en:Chapter 20

Скриншоты


_________________
Показать сообщения:    

Текущее время: Сегодня 23:11

Часовой пояс: GMT



Вы не можете начинать темы
Вы не можете отвечать на сообщения
Вы не можете редактировать свои сообщения
Вы не можете удалять свои сообщения
Вы не можете голосовать в опросах
Вы не можете прикреплять файлы к сообщениям
Вы не можете скачивать файлы