Важное объявление!
У Нас Все раздачи мультитрекерные, при нуле пиров в релизах, можете смело вставать на закачку!
 
Автор Сообщение

HUNTER

Стаж:
4 года 4 месяца
Сообщений:
56749

Репутация: 101

[+] [-]
Вне форума [Профиль] [ЛС]

Схватка / The Grey
«Один на один со смертью»
-
Страна: США
Жанр: боевик, триллер, драма
Год выпуска: 2011
Продолжительность: 01:57:08
Перевод: Профессиональный (полное дублирование)
Оригинальная аудиодорожка: английский
Субтитры: русские, английские
Режиссер: Джо Карнахан
В ролях: Лиам Нисон, Дермот Малруни, Фрэнк Грилло, Джеймс Бэдж, Дэйл Джо Андерсон, Нонсо Анози, Даллас Робертс, Лариса Стадничук, Бен Брэй, Джеймс Битонти
Описание: На Аляске потерпел крушение самолет, и оставшиеся в живых пассажиры оказались в плену безлюдной снежной пустыни, где только стая волков скрашивает пейзаж. Люди хотят выжить любой ценой, и теперь им предстоит смертельная схватка...

Тип релиза: BDRip 720р | исходник- BD THE_GREY_CZ_BLUEBIRD
Контейнер: MKV
Видео: 1280x720 (16:9), 23.976 fps, x264@L4.1 ~9058 kbps avg
Аудио 1: 48 kHz, DTS, 3/2 (L,C,R,l,r) + LFE ch, ~1509.00 kbps avg [русский]
Аудио 2: 48 kHz, DTS, 3/2 (L,C,R,l,r) + LFE ch, ~1509.00 kbps avg [английский]
Субтитры: softsub (SRT), русские (полные), английские (полные)

MediaInfo | x264

Format : Matroska
Format version : Version 4 / Version 2
File size : 10.1 GiB
Duration : 1h 57mn
Overall bit rate : 12.3 Mbps
Movie name : Схватка / The Grey (2011) :: AFM ::
Encoded date : UTC 2016-02-29 20:46:46
Writing application : mkvmerge v8.3.0 ('Over the Horizon') 32bit
Writing library : libebml v1.3.1 + libmatroska v1.4.2
Video
ID : 1
Format : AVC
Format/Info : Advanced Video Codec
Format profile : High@L4.1
Format settings, CABAC : Yes
Format settings, ReFrames : 8 frames
Codec ID : V_MPEG4/ISO/AVC
Duration : 1h 57mn
Bit rate : 9 058 Kbps
Width : 1 280 pixels
Height : 720 pixels
Display aspect ratio : 16:9
Frame rate mode : Constant
Frame rate : 23.976 fps
Color space : YUV
Chroma subsampling : 4:2:0
Bit depth : 8 bits
Scan type : Progressive
Bits/(Pixel*Frame) : 0.410
Stream size : 7.42 GiB (74%)
Title : BDRip by AFM [RuTracker.org]
Writing library : x264 core 148 r2665+53 6629127 t_mod_Custom [8-bit@all X86_64]
Encoding settings : cabac=1 / ref=8 / deblock=1:-3:-3 / analyse=0x3:0x113 / me=umh / subme=10 / psy=1 / fade_compensate=0.00 / psy_rd=1.00:0.00 / mixed_ref=1 / me_range=32 / chroma_me=1 / trellis=2 / 8x8dct=1 / cqm=0 / deadzone=21,11 / fast_pskip=0 / chroma_qp_offset=-2 / threads=6 / lookahead_threads=1 / sliced_threads=0 / nr=0 / decimate=1 / interlaced=0 / bluray_compat=0 / constrained_intra=0 / fgo=0 / bframes=13 / b_pyramid=2 / b_adapt=2 / b_bias=0 / direct=1 / weightb=1 / open_gop=0 / weightp=2 / keyint=250 / keyint_min=23 / scenecut=40 / intra_refresh=0 / rc_lookahead=40 / rc=crf / mbtree=0 / crf=17.9000 / qcomp=0.65 / qpmin=0:0:0 / qpmax=69:69:69 / qpstep=4 / vbv_maxrate=50000 / vbv_bufsize=62500 / crf_max=0.0 / nal_hrd=none / filler=0 / ip_ratio=1.35 / pb_ratio=1.30 / aq=1:0.80 / aq-sensitivity=10.00 / aq-factor=1.00:1.00:1.00 / aq2=0 / aq3=0
Language : English
Default : Yes
Forced : No
Audio #1
ID : 2
Format : DTS
Format/Info : Digital Theater Systems
Mode : 16
Format settings, Endianness : Big
Codec ID : A_DTS
Duration : 1h 57mn
Bit rate mode : Constant
Bit rate : 1 509 Kbps
Channel(s) : 6 channels
Channel positions : Front: L C R, Side: L R, LFE
Sampling rate : 48.0 KHz
Bit depth : 16 bits
Compression mode : Lossy
Stream size : 1.24 GiB (12%)
Title : Dub, DTS 5.1 ~1509 kbps
Language : Russian
Default : Yes
Forced : No
Audio #2
ID : 3
Format : DTS
Format/Info : Digital Theater Systems
Mode : 16
Format settings, Endianness : Big
Codec ID : A_DTS
Duration : 1h 57mn
Bit rate mode : Constant
Bit rate : 1 509 Kbps
Channel(s) : 6 channels
Channel positions : Front: L C R, Side: L R, LFE
Sampling rate : 48.0 KHz
Bit depth : 24 bits
Compression mode : Lossy
Stream size : 1.24 GiB (12%)
Title : Original, DTS 5.1 ~1509 kbps
Language : English
Default : No
Forced : No
Text #1
ID : 4
Format : UTF-8
Codec ID : S_TEXT/UTF8
Codec ID/Info : UTF-8 Plain Text
Language : Russian
Default : Yes
Forced : No
Text #2
ID : 5
Format : UTF-8
Codec ID : S_TEXT/UTF8
Codec ID/Info : UTF-8 Plain Text
Language : English
Default : No
Forced : No
Menu
00:00:00.000 : en:00:00:00.000
00:07:07.427 : en:00:07:07.427
00:11:34.235 : en:00:11:34.235
00:17:52.071 : en:00:17:52.071
00:23:41.420 : en:00:23:41.420
00:30:47.179 : en:00:30:47.179
00:35:30.128 : en:00:35:30.128
00:43:29.982 : en:00:43:29.982
00:47:08.784 : en:00:47:08.784
00:50:57.012 : en:00:50:57.012
00:59:04.791 : en:00:59:04.791
01:04:06.384 : en:01:04:06.384
01:11:31.787 : en:01:11:31.787
01:14:54.657 : en:01:14:54.657
01:19:54.248 : en:01:19:54.248
01:24:16.051 : en:01:24:16.051
01:33:33.691 : en:01:33:33.691
01:39:01.018 : en:01:39:01.018
01:41:12.692 : en:01:41:12.692
01:49:22.347 : en:01:49:22.347
x264
x264 [info]: frame I:897 Avg QP:16.51 size:125565
x264 [info]: frame P:32851 Avg QP:17.59 size: 67280
x264 [info]: frame B:134922 Avg QP:20.35 size: 43407
x264 [info]: consecutive B-frames: 1.5% 2.4% 3.4% 23.3% 11.2% 26.2% 9.4% 9.2% 3.0% 3.8% 1.3% 2.3% 1.3% 1.7%
x264 [info]: mb I I16..4: 7.7% 80.2% 12.1%
x264 [info]: mb P I16..4: 1.2% 26.5% 2.0% P16..4: 30.3% 23.5% 10.8% 0.0% 0.0% skip: 5.7%
x264 [info]: mb B I16..4: 0.1% 5.4% 0.4% B16..8: 38.0% 15.0% 4.5% direct:13.0% skip:23.7% L0:45.9% L1:42.6% BI:11.4%
x264 [info]: 8x8 transform intra:90.1% inter:66.2%
x264 [info]: coded y,uvDC,uvAC intra: 93.4% 73.2% 41.5% inter: 49.3% 25.3% 2.8%
x264 [info]: i16 v,h,dc,p: 39% 11% 12% 38%
x264 [info]: i8 v,h,dc,ddl,ddr,vr,hd,vl,hu: 7% 7% 11% 10% 14% 12% 14% 11% 14%
x264 [info]: i4 v,h,dc,ddl,ddr,vr,hd,vl,hu: 6% 6% 5% 10% 16% 14% 15% 12% 16%
x264 [info]: i8c dc,h,v,p: 41% 27% 17% 15%
x264 [info]: Weighted P-Frames: Y:98.4% UV:11.8%
x264 [info]: ref P L0: 38.8% 7.2% 17.2% 10.4% 8.3% 7.0% 5.9% 4.2% 1.0% 0.0%
x264 [info]: ref B L0: 65.6% 13.5% 8.6% 5.0% 4.2% 2.2% 0.9%
x264 [info]: ref B L1: 89.6% 10.4%
x264 [info]: kb/s:9301.50

Скриншоты

Отличие CZE трансфера от US

US - 2.40:1 --------------------- 16:9

_________________
Показать сообщения:    

Текущее время: Сегодня 04:45

Часовой пояс: GMT



Вы не можете начинать темы
Вы не можете отвечать на сообщения
Вы не можете редактировать свои сообщения
Вы не можете удалять свои сообщения
Вы не можете голосовать в опросах
Вы не можете прикреплять файлы к сообщениям
Вы не можете скачивать файлы