Важное объявление!
У Нас Все раздачи мультитрекерные, при нуле пиров в релизах, можете смело вставать на закачку!
 
Автор Сообщение

mihis

[Профиль] [ЛС]

Суровое Испытание / The Crucible«Arthur Miller's timeless tale of truth on trial.»
Год выпуска: 1996
Страна: США, 20th Century Fox Film Corporation
Жанр: драма, история
Продолжительность: 01:58:06
Перевод: Профессиональный (многоголосый, закадровый) + Оригинал
Субтитры: Русские, английские
Режиссер: Николас Хитнер
В ролях: Дэниэл Дэй-Льюис, Вайнона Райдер, Пол Скофилд, Джоан Аллен, Брюс Дэвисон, Роб Кэмпбелл, Джеффри Джонс, Питер Вон, Кэррон Грэйвс, Чарлэйн Вудард, Фрэнсис Конрой, Элизабет Лоуренс, Джордж Гейнс, Мэри Пэт Глисон, Роберт Бреулер, Рейчел Белла, Эшли Пелдон, Том МакДермотт, Джон Гресемер, Майкл Гэстон, Уильям Престон, Рут Малечех, Шейла Пинкхэм
Описание: Салем, Массачусетс. Компания девушек отправляется ночью привораживать парней под руководством Титубы, негритянки с Барбадоса. Колдовское варево на костре и дикие танцы для них — развлечение. Происходящее замечает священник. По деревне ползет слух о дьявольском заговоре. Фантазиям обывателей о связях с Дьяволом и заговорах нет предела. Закручивается жуткая машина охоты на ведьм. Жители деревни оговаривают друг друга, чтобы избавиться от давних врагов. Аресты следуют один за другим. Из Бостона присылают судью. Помешанный на изгнании Дьявола, он принимает даже самые нелепые обвинения.

Качество: HDTVRip-AVC
Формат: MKV
Видео кодек: H.264
Аудио кодек: AC3
Видео: AVC, 1024x576 (16:9), 25.000 fps, 3 363 Kbps (0.228 bit/pixel)
Аудио: AC-3, 48.0 KHz, 6 ch, 448 Kbps MVO, Eng

Награды

Оскар, 1997 год
Номинации (2):
Лучшая женская роль второго плана (Джоан Аллен)
Лучший адаптированный сценарий
Золотой глобус, 1997 год
Номинации (2):
Лучшая мужская роль второго плана (Пол Скофилд)
Лучшая женская роль второго плана (Джоан Аллен)
Британская академия, 1997 год
Победитель (1):
Лучшая мужская роль второго плана (Пол Скофилд)
Номинации (1):
Лучший адаптированный сценарий
Берлинский кинофестиваль, 1997 год
Номинации (1):
Золотой Медведь

MediaInfo

Общее
Уникальный идентификатор : 203085363810016950013734482467688274158 (0x98C8D17EEABC4C8AAC9FD20C3A23D8EE)
Полное имя : D:\Video\Surovoe.ispytanie.1996.x264.HDTVRip(AVC)-MediaClub.mkv
Формат : Matroska
Версия формата : Version 2
Размер файла : 3,52 Гбайт
Продолжительность : 1 ч. 58 м.
Общий поток : 4261 Кбит/сек
Название фильма : -= Release MediaClub =-
Дата кодирования : UTC 2013-07-03 17:11:53
Программа кодирования : mkvmerge v4.3.0 ('Escape from the Island') сборка от Sep 5 2010 10:30:51
Библиотека кодирования : libebml v1.0.0 + libmatroska v1.0.0
Видео
Идентификатор : 1
Формат : AVC
Формат/Информация : Advanced Video Codec
Профиль формата : Main@L4.1
Параметр CABAC формата : Да
Параметр ReFrames формата : 8 кадров
Идентификатор кодека : V_MPEG4/ISO/AVC
Продолжительность : 1 ч. 58 м.
Битрейт : 3363 Кбит/сек
Ширина : 1024 пикселя
Высота : 576 пикселей
Соотношение сторон : 16:9
Режим частоты кадров : Постоянный
Частота кадров : 25,000 кадров/сек
Цветовое пространство : YUV
Субдискретизация насыщенности : 4:2:0
Битовая глубина : 8 бит
Тип развёртки : Прогрессивная
Бит/(Пиксели*Кадры) : 0.228
Размер потока : 2,71 Гбайт (77%)
Заголовок : Surovoe.ispytanie.1996.x264.HDTVRip(AVC)-neni
Библиотека кодирования : x264 core 130 r2273 b3065e6
Настройки программы : cabac=1 / ref=8 / deblock=1:-2:-2 / analyse=0x1:0x111 / me=umh / subme=11 / psy=1 / psy_rd=1.00:0.20 / mixed_ref=1 / me_range=48 / chroma_me=1 / trellis=2 / 8x8dct=0 / cqm=0 / deadzone=21,11 / fast_pskip=0 / chroma_qp_offset=-3 / threads=9 / lookahead_threads=1 / sliced_threads=0 / nr=0 / decimate=0 / interlaced=0 / bluray_compat=0 / constrained_intra=0 / bframes=8 / b_pyramid=2 / b_adapt=2 / b_bias=0 / direct=3 / weightb=1 / open_gop=0 / weightp=2 / keyint=240 / keyint_min=24 / scenecut=40 / intra_refresh=0 / rc_lookahead=40 / rc=2pass / mbtree=0 / bitrate=3363 / ratetol=1.0 / qcomp=0.60 / qpmin=0 / qpmax=69 / qpstep=4 / cplxblur=20.0 / qblur=0.5 / vbv_maxrate=50000 / vbv_bufsize=50000 / nal_hrd=none / ip_ratio=1.40 / pb_ratio=1.30 / aq=1:1.00
Язык : Russian
Default : Да
Forced : Да
Аудио #1
Идентификатор : 2
Формат : AC-3
Формат/Информация : Audio Coding 3
Расширение режима : CM (complete main)
Параметр Endianness формата : Big
Идентификатор кодека : A_AC3
Продолжительность : 1 ч. 58 м.
Вид битрейта : Постоянный
Битрейт : 448 Кбит/сек
Каналы : 6 каналов
Расположение каналов : Front: L C R, Side: L R, LFE
Частота : 48,0 КГц
Битовая глубина : 16 бит
Метод сжатия : С потерями
Задержка видео : 960 мс.
Размер потока : 378 Мбайт (11%)
Заголовок : AC3 6 ch 448kbps - многоголосый (DVD R5)
Язык : Russian
Default : Да
Forced : Да
Аудио #2
Идентификатор : 3
Формат : AC-3
Формат/Информация : Audio Coding 3
Расширение режима : CM (complete main)
Параметр Endianness формата : Big
Идентификатор кодека : A_AC3
Продолжительность : 1 ч. 58 м.
Вид битрейта : Постоянный
Битрейт : 448 Кбит/сек
Каналы : 6 каналов
Расположение каналов : Front: L C R, Side: L R, LFE
Частота : 48,0 КГц
Битовая глубина : 16 бит
Метод сжатия : С потерями
Задержка видео : 960 мс.
Размер потока : 378 Мбайт (11%)
Заголовок : AC3 6 ch 448kbps - original (DVD R5)
Язык : English
Default : Нет
Forced : Нет
Текст #1
Идентификатор : 4
Формат : UTF-8
Идентификатор кодека : S_TEXT/UTF8
Идентификатор кодека/Информация : UTF-8 Plain Text
Язык : Russian
Default : Нет
Forced : Нет
Текст #2
Идентификатор : 5
Формат : UTF-8
Идентификатор кодека : S_TEXT/UTF8
Идентификатор кодека/Информация : UTF-8 Plain Text
Язык : English
Default : Нет
Forced : Нет
 
Показать сообщения:    

Текущее время: Сегодня 11:01

Часовой пояс: GMT



Вы не можете начинать темы
Вы не можете отвечать на сообщения
Вы не можете редактировать свои сообщения
Вы не можете удалять свои сообщения
Вы не можете голосовать в опросах
Вы не можете прикреплять файлы к сообщениям
Вы не можете скачивать файлы