Важное объявление!
У Нас Все раздачи мультитрекерные, при нуле пиров в релизах, можете смело вставать на закачку!
 
Автор Сообщение

HUNTER

Стаж:
4 года 4 месяца
Сообщений:
56848

Репутация: 101

[+] [-]
Вне форума [Профиль] [ЛС]

Суперфорсаж! / Superfast!
Страна: США
Студия: 3 in the Box, The Safran Company
Жанр: комедия
Год выпуска: 2015
Продолжительность: 01:35:14
Перевод: Профессиональный (дублированный) iTunes Russia
Cубтитры: нет
Оригинальная аудиодорожка: нет
Режиссер: Джейсон Фридберг / Jason Friedberg, Аарон Зельцер / Aaron Seltzer
В ролях: Алекс Ашбаух, Дэйл Павински, Лили Мирожник, Андреа Наведо, Дэниэл Буко, Дио Джонсон, Шантель Вислэвски, Джозеф Джулиан Сория, Гонсало Менендес, Омар Чапарро
Описание: Короли комедии снова в строю. На этот раз объектом пародии стала «форсажная» франшиза и прочие фильмы о гонках, ограблениях и крутых тачках. Шутки еще смешнее, ирония еще жестче, плотность гэгов - еще выше.
Доп. информация: Сохранены оригинальные главы.


Сэмпл: http://sendfile.su/1156681
Тип релиза: WEB-DL 720p
Контейнер: MKV
Видео: 960x720@1280x720, 25.000 fps, MPEG-4 AVC, 3879 kbps avg
Аудио: RUS | 48 kHz, AC3, 3/2 (L,C,R,l,r) + LFE ch, ~384.00 kbps avg | Дубляж, iTunes Russia

MediaInfo

General
Unique ID : 175889212651985413837031088251754660377 (0x845307B82E1B0A398D65A50D8D9A4219)
Complete name : D:\Superfast.2015.720p.WEB-DL.Rus.HDCLUB.mkv
Format : Matroska
Format version : Version 2
File size : 2.89 GiB
Duration : 1h 35mn
Overall bit rate : 4 350 Kbps
Movie name : Superfast! (2015) - Release for HDCLUB
Encoded date : UTC 2015-04-11 16:47:52
Writing application : mkvmerge v3.4.0 ('Rapunzel') built on May 15 2010 09:38:20
Writing library : libebml v0.8.0 + libmatroska v0.9.0
Video
ID : 1
Format : AVC
Format/Info : Advanced Video Codec
Format profile : Main@L3.1
Format settings, CABAC : No
Format settings, ReFrames : 2 frames
Codec ID : V_MPEG4/ISO/AVC
Duration : 1h 35mn
Bit rate : 3 879 Kbps
Width : 960 pixels
Height : 720 pixels
Display aspect ratio : 16:9
Frame rate mode : Constant
Frame rate : 25.000 fps
Color space : YUV
Chroma subsampling : 4:2:0
Bit depth : 8 bits
Scan type : Progressive
Bits/(Pixel*Frame) : 0.224
Stream size : 2.58 GiB (89%)
Title : Superfast! (2015) - Release for HDCLUB
Language : English
Default : Yes
Forced : No
Color range : Limited
Color primaries : BT.709
Transfer characteristics : BT.709
Matrix coefficients : BT.709
Audio
ID : 2
Format : AC-3
Format/Info : Audio Coding 3
Mode extension : CM (complete main)
Format settings, Endianness : Big
Codec ID : A_AC3
Duration : 1h 35mn
Bit rate mode : Constant
Bit rate : 384 Kbps
Channel(s) : 6 channels
Channel positions : Front: L C R, Side: L R, LFE
Sampling rate : 48.0 KHz
Compression mode : Lossy
Stream size : 262 MiB (9%)
Title : AC3 5.1 @ 384 kbps - DUB, iTunes
Language : Russian
Default : Yes
Forced : No
Menu
00:00:00.000 : en:1
00:05:11.000 : en:2
00:12:34.000 : en:3
00:17:33.000 : en:4
00:23:59.000 : en:5
00:31:47.000 : en:6
00:35:50.000 : en:7
00:41:20.000 : en:8
00:44:37.000 : en:9
00:49:49.000 : en:10
00:54:34.000 : en:11
01:00:01.000 : en:12
01:04:54.000 : en:13
01:11:02.000 : en:14
01:15:51.000 : en:15
01:20:20.000 : en:16
01:25:48.000 : en:17

Скриншоты


_________________
Показать сообщения:    

Текущее время: Сегодня 04:19

Часовой пояс: GMT



Вы не можете начинать темы
Вы не можете отвечать на сообщения
Вы не можете редактировать свои сообщения
Вы не можете удалять свои сообщения
Вы не можете голосовать в опросах
Вы не можете прикреплять файлы к сообщениям
Вы не можете скачивать файлы
Наши партнеры: интернет магазин Ивановского трикотажа textilla.ru