Важное объявление!
У Нас Все раздачи мультитрекерные, при нуле пиров в релизах, можете смело вставать на закачку!
 
Автор Сообщение

ForZe

Стаж:
4 года 4 месяца
Сообщений:
182

Репутация: 30

[+] [-]
Вне форума [Профиль] [ЛС]

Суперсемейка / The Incredibles
Страна: США
Жанр: мультфильм, комедия, фантастика
Продолжительность: 01:55:25
Год выпуска: 2004
Перевод: Профессиональный (дублированный)
Cубтитры: английский, русский
Оригинальная аудиодорожка: английский-Режиссёр: Брэд Берд / Brad Bird
Роли озвучивали: Крэйг Т. Нельсон (Боб Парр / Мистер Исключительный), Холли Хантер (Хелен Парр / Эластика), Сэмюэл Л. Джексон (Люциус Бест / Фреон), Джейсон Ли (Бадди Пайн / Синдром), Брэд Бёрд (Эдна Мод)-Описание: История семьи супергероев, члены которой уже отошли от больших дел и предпочитают жить непримечательной жизнью обычных землян. В прошлом все они обладали суперспособностями и относительно легко справлялись с мировым злом. Но в один прекрасный день папаше и его домочадцам приходится вновь облачиться в костюмы супергероев (а для этого нужно срочно сбросить лишние килограммы!) и в очередной раз спасти человечество от таинственного злодея…-Сэмпл: Скачать
Качество видео: BDRip-AVC
Формат видео: MKV
Видео: AVC; 1152x480 (2.40:1); 2325 Kbps; 23,976 fps; 0,175 bpp
Аудио 1: Russian; AC3; 384 Kbps; CBR; 6 ch; 16 bit
Аудио 2: English; AC3; 384 Kbps; CBR; 6 ch; 16 bit (Отдельно)
Субтитры №1: Русские, полные; SRT; (Отдельно)
Субтитры №2: Английские, полные; SRT; (Отдельно)-

Подробные технические данные

log

Код:
---[NoImage] avs [info]: 1152x480p 1:1 @ 24000/1001 fps (cfr)
---[NoImage] x264 [info]: using SAR=1/1
---[NoImage] x264 [info]: using cpu capabilities: MMX2 SSE2Fast SSSE3 FastShuffle SSE4.2
---[NoImage] x264 [info]: profile High, level 4.0
---[NoImage]
---[NoImage] x264 [info]: frame I:1455  Avg QP:16.26  size: 58594
---[NoImage] x264 [info]: frame P:45933 Avg QP:18.56  size: 19747
---[NoImage] x264 [info]: frame B:118666 Avg QP:20.47  size:  8592
---[NoImage] x264 [info]: consecutive B-frames:  5.4%  4.8% 20.7% 25.3% 16.1% 20.7%  2.4%  1.4%  0.8%  0.6%  0.3%  0.7%  0.2%  0.2%  0.1%  0.2%  0.1%
---[NoImage] x264 [info]: mb I  I16..4: 18.1% 56.8% 25.1%
---[NoImage] x264 [info]: mb P  I16..4:  4.0% 13.7%  2.8%  P16..4: 38.6% 13.9%  5.4%  0.7%  0.6%    skip:20.4%
---[NoImage] x264 [info]: mb B  I16..4:  0.3%  2.0%  0.7%  B16..8: 29.3%  8.3%  2.8%  direct: 3.5%  skip:53.0%  L0:41.4% L1:43.2% BI:15.4%
---[NoImage] x264 [info]: 8x8 transform intra:65.7% inter:56.6%
---[NoImage] x264 [info]: direct mvs  spatial:94.7% temporal:5.3%
---[NoImage] x264 [info]: coded y,uvDC,uvAC intra: 71.8% 62.5% 42.0% inter: 15.2% 12.3% 6.1%
---[NoImage] x264 [info]: i16 v,h,dc,p: 26% 20%  8% 45%
---[NoImage] x264 [info]: i8 v,h,dc,ddl,ddr,vr,hd,vl,hu: 12% 15%  9%  8% 10% 10% 12% 10% 14%
---[NoImage] x264 [info]: i4 v,h,dc,ddl,ddr,vr,hd,vl,hu: 11% 13%  7%  8% 14% 11% 13% 10% 12%
---[NoImage] x264 [info]: i8c dc,h,v,p: 38% 31% 16% 15%
---[NoImage] x264 [info]: Weighted P-Frames: Y:3.2% UV:2.5%
---[NoImage] x264 [info]: ref P L0: 54.2%  7.9% 14.0%  6.2%  4.4%  3.4%  2.8%  1.5%  1.2%  1.0%  0.9%  0.7%  0.6%  0.6%  0.5%  0.1%
---[NoImage] x264 [info]: ref B L0: 73.6% 11.8%  5.6%  2.6%  1.8%  1.3%  1.0%  0.6%  0.5%  0.4%  0.3%  0.3%  0.2%  0.1%
---[NoImage] x264 [info]: ref B L1: 91.8%  8.2%
---[NoImage] x264 [info]: kb/s:2323.83
---[NoImage] encoded 166054 frames, 5.21 fps, 2323.84 kb/s
Код:
Общее
Уникальный идентификатор         : 219842401320779031392185956863183819046 (0xA5641B3B63D28A1F93D18593971E1126)
Формат                           : Matroska
Размер файла                     : 2,18 Гбайт
Продолжительность                : 1 ч. 55 м.
Общий поток                      : 2710 Кбит/сек
Дата кодирования                 : UTC 2011-05-17 04:03:27
Программа кодирования            : mkvmerge v4.7.0 ('Just Like You Imagined') built on Apr 21 2011 01:13:14
Библиотека кодирования           : libebml v1.2.0 + libmatroska v1.1.0
Видео
Идентификатор                    : 1
Формат                           : AVC
Формат/Информация                : Advanced Video Codec
Профиль формата                  : High@L4.0
Параметр CABAC формата           : Да
Параметр ReFrames формата        : 15 кадры
Идентификатор кодека             : V_MPEG4/ISO/AVC
Продолжительность                : 1 ч. 55 м.
Битрейт                          : 2325 Кбит/сек
Ширина                           : 1152 пикс.
Высота                           : 480 пикс.
Соотношение сторон               : 2,40:1
Частота кадров                   : 23,976 кадр/сек
Цветовое пространство            : YUV
Подвыборка цветности             : 4:2:0
Битовая глубина                  : 8 бит
Тип развёртки                    : Прогрессивная
Бит/(Пиксели*Кадры)              : 0.175
Размер потока                    : 1,83 Гбайт (84%)
Заголовок                        : BDRip.1080p.by.WoRG
Библиотека кодирования           : x264 core 115 r1995 c1e60b9
Настройки программы              : cabac=1 / ref=15 / deblock=1:-3:0 / analyse=0x3:0x133 / me=umh / subme=10 / psy=1 / psy_rd=1.00:0.15 / mixed_ref=1 / me_range=24 / chroma_me=1 / trellis=2 / 8x8dct=1 / cqm=0 / deadzone=6,6 / fast_pskip=0 / chroma_qp_offset=-3 / threads=6 / sliced_threads=0 / nr=0 / decimate=0 / interlaced=0 / bluray_compat=0 / constrained_intra=0 / bframes=16 / b_pyramid=2 / b_adapt=2 / b_bias=0 / direct=3 / weightb=1 / open_gop=0 / weightp=2 / keyint=250 / keyint_min=23 / scenecut=40 / intra_refresh=0 / rc_lookahead=60 / rc=2pass / mbtree=1 / bitrate=2325 / ratetol=1.0 / qcomp=0.80 / qpmin=0 / qpmax=69 / qpstep=4 / cplxblur=20.0 / qblur=0.5 / ip_ratio=1.10 / aq=1:0.50
Язык                             : English
Аудио
Идентификатор                    : 2
Формат                           : AC-3
Формат/Информация                : Audio Coding 3
Расширение режима                : CM (complete main)
Идентификатор кодека             : A_AC3
Продолжительность                : 1 ч. 55 м.
Вид битрейта                     : Постоянный
Битрейт                          : 384 Кбит/сек
Канал(ы)                         : 6 канала(ов)
Расположение каналов             : Front: L C R, Side: L R, LFE
Частота                          : 48,0 КГц
Битовая глубина                  : 16 бит
Метод сжатия                     : С потерями
Размер потока                    : 317 Мбайт (14%)
Заголовок                        : DUB
Язык                             : Russian
Меню
00:00:00.000                     : en:00:00:00.000
00:09:14.554                     : en:00:09:14.554
00:11:32.734                     : en:00:11:32.734
00:13:31.352                     : en:00:13:31.352
00:17:08.527                     : en:00:17:08.527
00:20:44.910                     : en:00:20:44.910
00:26:53.529                     : en:00:26:53.529
00:30:42.215                     : en:00:30:42.215
00:34:54.592                     : en:00:34:54.592
00:41:27.235                     : en:00:41:27.235
00:46:01.675                     : en:00:46:01.675
00:48:54.515                     : en:00:48:54.515
00:50:02.124                     : en:00:50:02.124
00:54:01.780                     : en:00:54:01.780
00:57:09.551                     : en:00:57:09.551
01:00:35.799                     : en:01:00:35.799
01:05:04.859                     : en:01:05:04.859
01:10:53.708                     : en:01:10:53.708
01:12:57.915                     : en:01:12:57.915
01:16:27.583                     : en:01:16:27.583
01:19:19.213                     : en:01:19:19.213
01:21:13.911                     : en:01:21:13.911
01:23:59.659                     : en:01:23:59.659
01:27:05.637                     : en:01:27:05.637
01:30:29.841                     : en:01:30:29.841
01:32:47.395                     : en:01:32:47.395
01:33:33.024                     : en:01:33:33.024
01:34:30.540                     : en:01:34:30.540
01:37:03.151                     : en:01:37:03.151
01:41:58.070                     : en:01:41:58.070
01:45:40.000                     : en:01:45:40.000
01:47:33.322                     : en:01:47:33.322

Скриншоты


_________________
Отдам инвайты на Dota 2! Если кому нужны пишите в лс
Показать сообщения:    

Текущее время: Сегодня 03:17

Часовой пояс: GMT



Вы не можете начинать темы
Вы не можете отвечать на сообщения
Вы не можете редактировать свои сообщения
Вы не можете удалять свои сообщения
Вы не можете голосовать в опросах
Вы не можете прикреплять файлы к сообщениям
Вы не можете скачивать файлы
Наши партнеры: интернет магазин Ивановского трикотажа textilla.ru