Важное объявление!
У Нас Все раздачи мультитрекерные, при нуле пиров в релизах, можете смело вставать на закачку!
 
Автор Сообщение

HUNTER

Стаж:
4 года 4 месяца
Сообщений:
56755

Репутация: 101

[+] [-]
Вне форума [Профиль] [ЛС]

Суперменеджер, или Мотыга судьбы-«Офисы - хоббитам!»--
Страна: Россия
Студия: Кинокомпания CTB
Жанр: фэнтези, комедия, приключения
Год выпуска: 2010
Продолжительность: 01:21:37-Перевод: Не требуется
Cубтитры: нет-Режиссер: Богдан Дробязко-В ролях: Юрий Чурсин, Сергей Медведев, Екатерина Вилкова, Екатерина Астахова, Иван Охлобыстин, Александр Ильин мл., Алексей Маклаков, Александр Пожаров, Петр Федоров
Описание: Давным-давно в одном большом городе, когда кризис вроде бы миновал, жили два брата. Младший Никита был самым обыкновенным… Хоббитом, капитаном арбалетчиков из Клана Лысых Холмов, любил пиво, ролевые игры, эльфийский лист, девушку Настю, романы про Средиземье и ничего не делать. Ну, а старший брат Егор служил топ-менеджером большой нефтяной компании. Но у любого менеджера бывает белая полоса, а бывает… увольнение.
В один прекрасный день Егор остался без работы, без офиса и без девушки. И тогда решил Егор обратиться за помощью к своему младшему брату, правда, у того тоже начались большие проблемы. Пропала мотыга Великого Торина — друга и соратника Никиты…- -Тип релиза: BDRip 720p
Контейнер: MKV-Видео: MPEG4 / 1280х688 / 1,860 / 6149 kbps / 23,976 fps
Аудио: DTS / 6 ch / 48,0 kHz / 1510 kbps-

MediaInfo

Общее
Уникальный идентификатор : 255019148944541021527024979136204216477 (0xBFDAE6CAF6193E449AA2CC54F33B989D)
Полное имя : D:\_torrents\Supermenedzher.2011.O.BDRip.720p.mkv
Формат : Matroska
Версия формата : Version 2
Размер файла : 4,37 Гбайт
Продолжительность : 1 ч. 21 м.
Общий поток : 7657 Кбит/сек
Дата кодирования : UTC 2011-07-01 18:27:05
Программа кодирования : mkvmerge v4.5.0 ('Speed of Light') сборка от Feb 15 2011 12:50:20
Библиотека кодирования : libebml v1.2.0 + libmatroska v1.1.0
Видео
Идентификатор : 1
Формат : AVC
Формат/Информация : Advanced Video Codec
Профиль формата : High@L4.1
Параметр CABAC формата : Да
Параметр ReFrames формата : 8 кадров
Идентификатор кодека : V_MPEG4/ISO/AVC
Продолжительность : 1 ч. 21 м.
Битрейт : 6149 Кбит/сек
Ширина : 1280 пикселей
Высота : 688 пикселей
Соотношение сторон : 1,860
Частота кадров : 23,976 кадра/сек
Цветовое пространство : YUV
Субдискретизация насыщенности : 4:2:0
Битовая глубина : 8 бит
Тип развёртки : Прогрессивная
Бит/(Пиксели*Кадры) : 0.291
Размер потока : 3,42 Гбайт (78%)
Библиотека кодирования : x264 core 114 r1913 5fd3dce
Настройки программы : cabac=1 / ref=8 / deblock=1:-1:-1 / analyse=0x3:0x133 / me=umh / subme=7 / psy=1 / psy_rd=1.00:0.10 / mixed_ref=1 / me_range=16 / chroma_me=1 / trellis=2 / 8x8dct=1 / cqm=0 / deadzone=21,11 / fast_pskip=0 / chroma_qp_offset=-3 / threads=12 / sliced_threads=0 / nr=0 / decimate=1 / interlaced=0 / constrained_intra=0 / bframes=3 / b_pyramid=2 / b_adapt=2 / b_bias=0 / direct=3 / weightb=1 / open_gop=0 / weightp=2 / keyint=250 / keyint_min=23 / scenecut=40 / intra_refresh=0 / rc_lookahead=50 / rc=2pass / mbtree=1 / bitrate=6149 / ratetol=1.0 / qcomp=0.60 / qpmin=0 / qpmax=69 / qpstep=4 / cplxblur=20.0 / qblur=0.5 / ip_ratio=1.40 / aq=1:1.00
Аудио
Идентификатор : 2
Формат : DTS
Формат/Информация : Digital Theater Systems
Идентификатор кодека : A_DTS
Продолжительность : 1 ч. 21 м.
Вид битрейта : Постоянный
Битрейт : 1510 Кбит/сек
Каналы : 6 каналов
Расположение каналов : Front: L C R, Side: L R, LFE
Частота : 48,0 КГц
Битовая глубина : 16 бит
Метод сжатия : С потерями
Размер потока : 882 Мбайт (20%)

Скриншоты


_________________
Показать сообщения:    

Текущее время: Сегодня 09:19

Часовой пояс: GMT



Вы не можете начинать темы
Вы не можете отвечать на сообщения
Вы не можете редактировать свои сообщения
Вы не можете удалять свои сообщения
Вы не можете голосовать в опросах
Вы не можете прикреплять файлы к сообщениям
Вы не можете скачивать файлы