Важное объявление!
У Нас Все раздачи мультитрекерные, при нуле пиров в релизах, можете смело вставать на закачку!
 
Автор Сообщение

HUNTER

Стаж:
4 года 4 месяца
Сообщений:
56772

Репутация: 101

[+] [-]
Вне форума [Профиль] [ЛС]

Супермен: Судный день / Superman/Doomsday«Where were you the day Superman died?»-
Страна: США
Жанр: Мультфильм, Фантастика, Боевик, Драма, Приключения
Год выпуска: 2007
Продолжительность: 01:17:41-Перевод: Профессиональный (многоголосый закадровый)
Оригинальная аудиодорожка: Английский
Cубтитры: Нет-Режиссер: Лорен Монтгомери / Lauren Montgomery, Брюс В. Тимм / Bruce W. Timm, Брэндон Виетти / Brandon V-Описание:Когда Лекскорп случайно освобождает из заточения межгалактического серийного убийцу, Супермэн жертвует собой, чтобы его остановить. Весь мир скорбит о павшем герое, человечество понимает, что уже никогда не будет в безопасности. Враги Супермэна ликуют, все кроме Лекса Лютора, который по-своему сожалеет о потере, чем вызывает цепочку событий, которых даже он не смог предвидеть.-Релиз от -
Автор: AngelOfTrue-Качество видео: BDRip-AVC | Исходник BDRemux 1080p
Формат видео: MKV-Видео: 1152x648 (16:9), 23,976 fps, x264 ~2050 kbps avg, 0.115 bit/pixel
Аудио #1: AC3 Dolby Digital / 48 KHz / 192 kbps / 2/0 (L,R) ch| MVO
Аудио #2: AC3 Dolby Digital / 48 KHz / 448 kbps / 3/2 (L,C,R,l,r) + LFE ch| Original (English)-

FAQ по просмотру MKV/h.264/AAC


-

x264 log

raw [info]: 1152x648p 1:1 @ 24000/1001 fps (cfr)
x264 [warning]: --psnr used with psy on: results will be invalid!
x264 [warning]: --tune psnr should be used if attempting to benchmark psnr!
x264 [info]: using SAR=1/1
x264 [info]: using cpu capabilities: MMX2 SSE2Fast SSSE3 SSE4.2 AVX AVX2 FMA3 LZCNT BMI2
x264 [info]: profile High, level 4.0
x264 [info]: frame I:1153 Avg QP:12.77 size: 91233 PSNR Mean Y:51.87 U:54.06 V:54.18 Avg:52.33 Global:51.19
x264 [info]: frame P:31000 Avg QP:16.50 size: 20154 PSNR Mean Y:50.26 U:54.02 V:54.14 Avg:50.80 Global:49.38
x264 [info]: frame B:79603 Avg QP:16.52 size: 5819 PSNR Mean Y:50.21 U:53.57 V:53.68 Avg:50.74 Global:49.02
x264 [info]: consecutive B-frames: 4.6% 8.3% 7.8% 53.0% 7.9% 9.7% 1.8% 2.3% 0.5% 2.2% 0.5% 1.5%
x264 [info]: mb I I16..4: 10.9% 44.5% 44.6%
x264 [info]: mb P I16..4: 1.5% 9.1% 3.8% P16..4: 19.9% 14.6% 7.2% 2.1% 0.4% skip:41.5%
x264 [info]: mb B I16..4: 0.3% 1.1% 0.4% B16..8: 18.5% 8.7% 1.9% direct: 1.9% skip:67.2% L0:41.9% L1:49.2% BI: 8.9%
x264 [info]: 8x8 transform intra:60.2% inter:37.2%
x264 [info]: direct mvs spatial:94.6% temporal:5.4%
x264 [info]: coded y,uvDC,uvAC intra: 56.9% 62.3% 46.5% inter: 7.9% 9.2% 6.1%
x264 [info]: i16 v,h,dc,p: 39% 21% 5% 35%
x264 [info]: i8 v,h,dc,ddl,ddr,vr,hd,vl,hu: 15% 13% 21% 7% 8% 7% 9% 8% 12%
x264 [info]: i4 v,h,dc,ddl,ddr,vr,hd,vl,hu: 23% 15% 21% 6% 7% 6% 7% 6% 8%
x264 [info]: i8c dc,h,v,p: 33% 36% 17% 13%
x264 [info]: Weighted P-Frames: Y:3.1% UV:2.5%
x264 [info]: ref P L0: 59.6% 6.0% 13.8% 6.5% 4.5% 3.3% 2.6% 1.5% 1.2% 0.9% 0.2% 0.0%
x264 [info]: ref B L0: 69.8% 15.5% 6.6% 3.0% 2.0% 1.4% 1.0% 0.5% 0.2%
x264 [info]: ref B L1: 93.2% 6.8%
x264 [info]: SSIM Mean Y:0.9948004 (22.840db)
x264 [info]: PSNR Mean Y:50.239 U:53.698 V:53.811 Avg:50.770 Global:49.133 kb/s:2047.81

-

MediaInfo

Формат : Matroska
Версия формата : Version 4 / Version 2
Размер файла : 1,46 Гбайт
Продолжительность : 1 ч. 17 м.
Общий поток : 2690 Кбит/сек
Дата кодирования : UTC 2014-04-14 12:09:32
Программа кодирования : mkvmerge v6.1.0 ('Old Devil') built on Mar 4 2013 09:10:42
Библиотека кодирования : libebml v1.3.0 + libmatroska v1.4.0
Видео
Идентификатор : 1
Формат : AVC
Формат/Информация : Advanced Video Codec
Профиль формата : High@L4.0
Параметр CABAC формата : Да
Параметр ReFrames формата : 10 кадров
Идентификатор кодека : V_MPEG4/ISO/AVC
Продолжительность : 1 ч. 17 м.
Битрейт : 2050 Кбит/сек
Ширина : 1152 пикселя
Высота : 648 пикселей
Соотношение сторон : 16:9
Режим частоты кадров : Постоянный
Частота кадров : 23,976 кадра/сек
Цветовое пространство : YUV
Субдискретизация насыщенности : 4:2:0
Битовая глубина : 8 бит
Тип развёртки : Прогрессивная
Бит/(Пиксели*Кадры) : 0.115
Размер потока : 1,08 Гбайт (74%)
Заголовок : Supermen.Sudnyi.Den.2007.DUAL.BDRip-AVC.AC3.-HQ-ViDEO
Библиотека кодирования : x264 core 140 r2377kMod 1ca7bb9
Настройки программы : cabac=1 / ref=10 / deblock=1:-2:-1 / analyse=0x3:0x133 / me=umh / subme=11 / psy=1 / fade_compensate=0.00 / psy_rd=1.00:0.00 / mixed_ref=1 / me_range=32 / chroma_me=1 / trellis=2 / 8x8dct=1 / cqm=0 / deadzone=21,11 / fast_pskip=0 / chroma_qp_offset=-2 / threads=6 / lookahead_threads=1 / sliced_threads=0 / nr=0 / decimate=0 / interlaced=0 / bluray_compat=0 / constrained_intra=0 / fgo=0 / bframes=11 / b_pyramid=2 / b_adapt=2 / b_bias=0 / direct=3 / weightb=1 / open_gop=0 / weightp=2 / keyint=240 / keyint_min=23 / scenecut=40 / intra_refresh=0 / rc_lookahead=60 / rc=2pass / mbtree=0 / bitrate=2050 / ratetol=1.0 / qcomp=0.65 / qpmin=0 / qpmax=69 / qpstep=4 / cplxblur=20.0 / qblur=0.5 / vbv_maxrate=20000 / vbv_bufsize=25000 / nal_hrd=none / filler=0 / ip_ratio=1.35 / pb_ratio=1.25 / aq=2:1.00
Язык : Russian
Default : Да
Forced : Нет
Основные цвета : BT.709
Характеристики трансфера : BT.709
Аудио #1
Идентификатор : 2
Формат : AC-3
Формат/Информация : Audio Coding 3
Расширение режима : CM (complete main)
Параметр Endianness формата : Big
Идентификатор кодека : A_AC3
Продолжительность : 1 ч. 17 м.
Вид битрейта : Постоянный
Битрейт : 192 Кбит/сек
Каналы : 2 канала
Расположение каналов : Front: L R
Частота : 48,0 КГц
Битовая глубина : 16 бит
Метод сжатия : С потерями
Размер потока : 107 Мбайт (7%)
Заголовок : MVO
Язык : Russian
Default : Да
Forced : Нет
Аудио #2
Идентификатор : 3
Формат : AC-3
Формат/Информация : Audio Coding 3
Расширение режима : CM (complete main)
Параметр Endianness формата : Big
Идентификатор кодека : A_AC3
Продолжительность : 1 ч. 17 м.
Вид битрейта : Постоянный
Битрейт : 448 Кбит/сек
Каналы : 6 каналов
Расположение каналов : Front: L C R, Side: L R, LFE
Частота : 48,0 КГц
Битовая глубина : 16 бит
Метод сжатия : С потерями
Размер потока : 249 Мбайт (17%)
Заголовок : Original
Язык : English
Default : Нет
Forced : Нет

-

Скриншоты



-Дополнительная информация: -Приятного вам просмотра!

_________________
Показать сообщения:    

Текущее время: Сегодня 10:00

Часовой пояс: GMT



Вы не можете начинать темы
Вы не можете отвечать на сообщения
Вы не можете редактировать свои сообщения
Вы не можете удалять свои сообщения
Вы не можете голосовать в опросах
Вы не можете прикреплять файлы к сообщениям
Вы не можете скачивать файлы