Важное объявление!
У Нас Все раздачи мультитрекерные, при нуле пиров в релизах, можете смело вставать на закачку!
 
Автор Сообщение

HUNTER

Стаж:
4 года 4 месяца
Сообщений:
56842

Репутация: 101

[+] [-]
Вне форума [Профиль] [ЛС]

Супермен: Брэйниак атакует / Superman: Brainiac Attacks«Two Enemies Unite To Destroy The Man Of Steel»-
Страна: США
Жанр: Мультфильм, Фантастика, Боевик
Год выпуска: 2006
Продолжительность: 01:16:16-Перевод #1: Профессиональный (двухголосый закадровый, Супербит)
Перевод #2: Любительский (двухголосый закадровый, Интерфильм)
Оригинальная аудиодорожка: Английский
Cубтитры: Русские (полные), Английские (полные) (*srt)-Режиссер: Курт Геда / Curt Geda-Описание:Озлобленный героическими успехами Cупермена и взлетающей популярностью, Лекс Лютор формирует опасный союз с мощным компьютерным злодеем Брэйниаком. Использование совершенного оружия на основе специальной породы, собранной из глубин космоса, злой гений перепрограммирует Брэйниака, что бы нанести поражение Супермену…-Автор: AngelOfTrue-Качество видео: BDRip-AVC | Исходник BDRemux 1080p
Формат видео: MKV-Видео: 1152x648 (16:9), 23,976 fps, x264 ~1950 kbps avg, 0.109 bit/pixel
Аудио #1: AC3 Dolby Digital / 48 KHz / 192 kbps / 2/0 (L,R) ch| DVO (Супербит)
Аудио #2: AC3 Dolby Digital / 48 KHz / 192 kbps / 2/0 (L,R) ch| DVO (Интерфильм)
Аудио #3: AC3 Dolby Digital / 48 KHz / 384 kbps / 3/2 (L,C,R,l,r) + LFE ch| Original (English)-

FAQ по просмотру MKV/h.264/AAC


-

x264 log

raw [info]: 1152x648p 1:1 @ 24000/1001 fps (cfr)
x264 [warning]: --psnr used with psy on: results will be invalid!
x264 [warning]: --tune psnr should be used if attempting to benchmark psnr!
x264 [info]: using SAR=1/1
x264 [info]: using cpu capabilities: MMX2 SSE2Fast SSSE3 SSE4.2 AVX AVX2 FMA3 LZCNT BMI2
x264 [info]: profile High, level 4.0
x264 [info]: frame I:1127 Avg QP:12.64 size: 86262 PSNR Mean Y:51.35 U:53.17 V:53.44 Avg:51.87 Global:51.18
x264 [info]: frame P:30226 Avg QP:15.87 size: 20112 PSNR Mean Y:49.65 U:51.84 V:52.15 Avg:50.23 Global:49.42
x264 [info]: frame B:78384 Avg QP:16.24 size: 5237 PSNR Mean Y:49.67 U:51.87 V:52.18 Avg:50.26 Global:49.24
x264 [info]: consecutive B-frames: 4.8% 6.1% 11.8% 45.1% 15.1% 8.0% 4.4% 1.2% 0.7% 0.7% 0.5% 1.5%
x264 [info]: mb I I16..4: 13.1% 46.2% 40.8%
x264 [info]: mb P I16..4: 2.5% 6.2% 3.4% P16..4: 24.0% 20.6% 8.2% 2.2% 0.4% skip:32.5%
x264 [info]: mb B I16..4: 0.3% 0.6% 0.3% B16..8: 22.0% 9.6% 1.7% direct: 2.0% skip:63.5% L0:45.9% L1:48.6% BI: 5.5%
x264 [info]: 8x8 transform intra:50.0% inter:40.3%
x264 [info]: direct mvs spatial:95.6% temporal:4.4%
x264 [info]: coded y,uvDC,uvAC intra: 54.7% 69.8% 54.7% inter: 7.6% 10.4% 6.4%
x264 [info]: i16 v,h,dc,p: 60% 10% 5% 26%
x264 [info]: i8 v,h,dc,ddl,ddr,vr,hd,vl,hu: 13% 10% 22% 8% 9% 8% 10% 9% 12%
x264 [info]: i4 v,h,dc,ddl,ddr,vr,hd,vl,hu: 18% 12% 19% 9% 10% 8% 9% 7% 10%
x264 [info]: i8c dc,h,v,p: 33% 31% 19% 17%
x264 [info]: Weighted P-Frames: Y:3.0% UV:2.5%
x264 [info]: ref P L0: 56.4% 7.3% 14.1% 6.3% 4.7% 3.7% 3.3% 1.7% 1.4% 0.9% 0.2% 0.0%
x264 [info]: ref B L0: 63.9% 16.1% 8.1% 4.0% 2.9% 2.2% 1.7% 0.8% 0.4%
x264 [info]: ref B L1: 91.9% 8.1%
x264 [info]: SSIM Mean Y:0.9943803 (22.503db)
x264 [info]: PSNR Mean Y:49.683 U:51.873 V:52.184 Avg:50.270 Global:49.303 kb/s:1949.99

-

MediaInfo

Формат : Matroska
Версия формата : Version 4 / Version 2
Размер файла : 1,45 Гбайт
Продолжительность : 1 ч. 16 м.
Общий поток : 2720 Кбит/сек
Дата кодирования : UTC 2014-04-01 14:30:15
Программа кодирования : mkvmerge v6.1.0 ('Old Devil') built on Mar 4 2013 09:10:42
Библиотека кодирования : libebml v1.3.0 + libmatroska v1.4.0
Видео
Идентификатор : 1
Формат : AVC
Формат/Информация : Advanced Video Codec
Профиль формата : High@L4.0
Параметр CABAC формата : Да
Параметр ReFrames формата : 10 кадров
Идентификатор кодека : V_MPEG4/ISO/AVC
Продолжительность : 1 ч. 16 м.
Битрейт : 1950 Кбит/сек
Ширина : 1152 пикселя
Высота : 648 пикселей
Соотношение сторон : 16:9
Режим частоты кадров : Постоянный
Частота кадров : 23,976 кадра/сек
Цветовое пространство : YUV
Субдискретизация насыщенности : 4:2:0
Битовая глубина : 8 бит
Тип развёртки : Прогрессивная
Бит/(Пиксели*Кадры) : 0.109
Размер потока : 1,01 Гбайт (70%)
Заголовок : Superman.Brainiac.Attacks.2006.TRIPLE.BDRip-AVC.AC3.-AngelOfTrue
Библиотека кодирования : x264 core 140 r2377kMod 1ca7bb9
Настройки программы : cabac=1 / ref=10 / deblock=1:-2:-1 / analyse=0x3:0x133 / me=umh / subme=11 / psy=1 / fade_compensate=0.00 / psy_rd=1.00:0.00 / mixed_ref=1 / me_range=32 / chroma_me=1 / trellis=2 / 8x8dct=1 / cqm=0 / deadzone=21,11 / fast_pskip=0 / chroma_qp_offset=-2 / threads=6 / lookahead_threads=1 / sliced_threads=0 / nr=0 / decimate=0 / interlaced=0 / bluray_compat=0 / constrained_intra=0 / fgo=0 / bframes=11 / b_pyramid=2 / b_adapt=2 / b_bias=0 / direct=3 / weightb=1 / open_gop=0 / weightp=2 / keyint=240 / keyint_min=23 / scenecut=40 / intra_refresh=0 / rc_lookahead=60 / rc=2pass / mbtree=0 / bitrate=1950 / ratetol=1.0 / qcomp=0.65 / qpmin=0 / qpmax=69 / qpstep=4 / cplxblur=20.0 / qblur=0.5 / vbv_maxrate=20000 / vbv_bufsize=25000 / nal_hrd=none / filler=0 / ip_ratio=1.35 / pb_ratio=1.25 / aq=2:1.00
Язык : Russian
Default : Да
Forced : Нет
Основные цвета : BT.709
Характеристики трансфера : BT.709
Аудио #1
Идентификатор : 2
Формат : AC-3
Формат/Информация : Audio Coding 3
Расширение режима : CM (complete main)
Параметр Endianness формата : Big
Идентификатор кодека : A_AC3
Продолжительность : 1 ч. 16 м.
Вид битрейта : Постоянный
Битрейт : 192 Кбит/сек
Каналы : 2 канала
Расположение каналов : Front: L R
Частота : 48,0 КГц
Битовая глубина : 16 бит
Метод сжатия : С потерями
Размер потока : 105 Мбайт (7%)
Заголовок : DVO (Супербит)
Язык : Russian
Default : Да
Forced : Нет
Аудио #2
Идентификатор : 3
Формат : AC-3
Формат/Информация : Audio Coding 3
Расширение режима : CM (complete main)
Параметр Endianness формата : Big
Идентификатор кодека : A_AC3
Продолжительность : 1 ч. 16 м.
Вид битрейта : Постоянный
Битрейт : 192 Кбит/сек
Каналы : 2 канала
Расположение каналов : Front: L R
Частота : 48,0 КГц
Битовая глубина : 16 бит
Метод сжатия : С потерями
Размер потока : 105 Мбайт (7%)
Заголовок : DVO (Интерфильм)
Язык : Russian
Default : Нет
Forced : Нет
Аудио #3
Идентификатор : 4
Формат : AC-3
Формат/Информация : Audio Coding 3
Расширение режима : CM (complete main)
Параметр Endianness формата : Big
Идентификатор кодека : A_AC3
Продолжительность : 1 ч. 16 м.
Вид битрейта : Постоянный
Битрейт : 384 Кбит/сек
Каналы : 6 каналов
Расположение каналов : Front: L C R, Side: L R, LFE
Частота : 48,0 КГц
Битовая глубина : 16 бит
Метод сжатия : С потерями
Размер потока : 210 Мбайт (14%)
Заголовок : Original
Язык : English
Default : Нет
Forced : Нет
Текст #1
Идентификатор : 5
Формат : UTF-8
Идентификатор кодека : S_TEXT/UTF8
Идентификатор кодека/Информация : UTF-8 Plain Text
Заголовок : Russian (full)
Язык : Russian
Default : Нет
Forced : Нет
Текст #2
Идентификатор : 6
Формат : UTF-8
Идентификатор кодека : S_TEXT/UTF8
Идентификатор кодека/Информация : UTF-8 Plain Text
Заголовок : English (full)
Язык : English
Default : Нет
Forced : Нет

-

Скриншоты



-Дополнительная информация: -Приятного вам просмотра!

_________________
Показать сообщения:    

Текущее время: Сегодня 11:39

Часовой пояс: GMT



Вы не можете начинать темы
Вы не можете отвечать на сообщения
Вы не можете редактировать свои сообщения
Вы не можете удалять свои сообщения
Вы не можете голосовать в опросах
Вы не можете прикреплять файлы к сообщениям
Вы не можете скачивать файлы