Важное объявление!
У Нас Все раздачи мультитрекерные, при нуле пиров в релизах, можете смело вставать на закачку!
 
Автор Сообщение

HUNTER

Стаж:
4 года 4 месяца
Сообщений:
56733

Репутация: 101

[+] [-]
Вне форума [Профиль] [ЛС]

Информация о фильме
Название: Супер Майк
Оригинальное название: Magic Mike
Год выхода: 2012
Жанр: Драма, Комедия, Биография
Режиссер: Стивен Содерберг
В ролях: Ченнинг Татум, Алекс Петтифер, Мэттью МакКонахи, Мэтт Бомер, Джо Манганьелло, Кевин Нэш, Оливия Манн, Джеймс Мартин Келли, Коуди Хорн, Рейд Каролин
О фильме:
Это фильм о настоящей мужской дружбе в мире стриптизеров. Главный герой - танцор, который обучает молодого парня, как необходимо вести себя на сцене и около шеста.

Страна: США
Продолжительность: 01:50:28
Перевод: Дублированный [Лицензия]
Файл
Кодек: AVC
Качество: BDRip 720p
Видео: 1280x536, 23.976 fps, 4156 Kbps
Аудио 1: АС3, 48000 Hz, 6 ch, 448 Kbps [Russian]
Аудио 2: DTS, 48000 Hz, 6 ch, 1510 Kbps [English]
Субтитры: English
Дополнительно: Сохранены оригинальные чаптеры с Blu-Ray
Семпл

Media Info

General
Unique ID : 194350503874096038512848265380708159913 (0x92368BA6A91456DFBBEDF9A8981F11A9)
Complete name : F:Magic.mike.2012.D.BDRip.720p.mkv
Format : Matroska
Format version : Version 2
File size : 4.72 GiB
Duration : 1h 50mn
Overall bit rate : 6 111 Kbps
Encoded date : UTC 2012-10-12 06:54:48
Writing application : mkvmerge v5.8.0 ('No Sleep / Pillow') built on Sep 2 2012 15:37:04
Writing library : libebml v1.2.3 + libmatroska v1.3.0
Video
ID : 1
Format : AVC
Format/Info : Advanced Video Codec
Format profile : High@L4.1
Format settings, CABAC : Yes
Format settings, ReFrames : 5 frames
Muxing mode : Header stripping
Codec ID : V_MPEG4/ISO/AVC
Duration : 1h 50mn
Bit rate : 4 156 Kbps
Width : 1 280 pixels
Height : 536 pixels
Display aspect ratio : 2.40:1
Frame rate : 23.976 fps
Color space : YUV
Chroma subsampling : 4:2:0
Bit depth : 8 bits
Scan type : Progressive
Bits/(Pixel*Frame) : 0.253
Stream size : 3.11 GiB (66%)
Writing library : x264 core 128 r2216 198a7ea
Encoding settings : cabac=1 / ref=5 / deblock=1:0:0 / analyse=0x3:0x133 / me=umh / subme=7 / psy=1 / psy_rd=1.00:0.00 / mixed_ref=1 / me_range=16 / chroma_me=1 / trellis=1 / 8x8dct=1 / cqm=0 / deadzone=21,11 / fast_pskip=0 / chroma_qp_offset=-2 / threads=12 / lookahead_threads=2 / sliced_threads=0 / nr=0 / decimate=1 / interlaced=0 / bluray_compat=0 / constrained_intra=0 / bframes=3 / b_pyramid=2 / b_adapt=1 / b_bias=0 / direct=1 / weightb=1 / open_gop=0 / weightp=2 / keyint=250 / keyint_min=23 / scenecut=40 / intra_refresh=0 / rc_lookahead=40 / rc=2pass / mbtree=1 / bitrate=4156 / ratetol=1.0 / qcomp=0.60 / qpmin=0 / qpmax=69 / qpstep=4 / cplxblur=20.0 / qblur=0.5 / ip_ratio=1.40 / aq=1:1.00
Language : English
Default : Yes
Forced : No
Audio #1
ID : 2
Format : AC-3
Format/Info : Audio Coding 3
Mode extension : CM (complete main)
Muxing mode : Header stripping
Codec ID : A_AC3
Duration : 1h 50mn
Bit rate mode : Constant
Bit rate : 448 Kbps
Channel(s) : 6 channels
Channel positions : Front: L C R, Side: L R, LFE
Sampling rate : 48.0 KHz
Bit depth : 16 bits
Compression mode : Lossy
Delay relative to video : 1s 800ms
Stream size : 354 MiB (7%)
Language : Russian
Default : Yes
Forced : No
Audio #2
ID : 3
Format : DTS
Format/Info : Digital Theater Systems
Muxing mode : Header stripping
Codec ID : A_DTS
Duration : 1h 50mn
Bit rate mode : Constant
Bit rate : 1 510 Kbps
Channel(s) : 6 channels
Channel positions : Front: L C R, Side: L R, LFE
Sampling rate : 48.0 KHz
Bit depth : 24 bits
Compression mode : Lossy
Stream size : 1.17 GiB (25%)
Language : English
Default : No
Forced : No
Text
ID : 4
Format : UTF-8
Codec ID : S_TEXT/UTF8
Codec ID/Info : UTF-8 Plain Text
Language : English
Default : No
Forced : No
Menu
00:00:00.000 : en:00:00:00.000
00:04:31.855 : en:00:04:31.855
00:10:30.380 : en:00:10:30.380
00:16:08.509 : en:00:16:08.509
00:21:07.183 : en:00:21:07.183
00:26:17.868 : en:00:26:17.868
00:33:15.327 : en:00:33:15.327
00:37:25.285 : en:00:37:25.285
00:42:12.155 : en:00:42:12.155
00:46:13.354 : en:00:46:13.354
00:49:47.776 : en:00:49:47.776
00:56:34.182 : en:00:56:34.182
00:59:16.428 : en:00:59:16.428
01:03:44.446 : en:01:03:44.446
01:10:29.058 : en:01:10:29.058
01:15:10.005 : en:01:15:10.005
01:19:26.970 : en:01:19:26.970
01:23:14.615 : en:01:23:14.615
01:27:13.311 : en:01:27:13.311
01:32:23.955 : en:01:32:23.955
01:37:16.873 : en:01:37:16.873
01:42:46.118 : en:01:42:46.118
01:45:58.394 : en:01:45:58.394

Скриншоты


_________________
Показать сообщения:    

Текущее время: Сегодня 19:21

Часовой пояс: GMT



Вы не можете начинать темы
Вы не можете отвечать на сообщения
Вы не можете редактировать свои сообщения
Вы не можете удалять свои сообщения
Вы не можете голосовать в опросах
Вы не можете прикреплять файлы к сообщениям
Вы не можете скачивать файлы